* Dettagli Torrent   globale  | Commenti (0) 


- Manchester By The Sea (2016).H264.Italian.English.Ac3.5.1.sub.ita.eng.iCV-MIRCrew -


Download via torrent:
Categoria bittorrent BDRip
Descrizione
Manchester By The Sea (2016).H264.Italian.English.Ac3.5.1.sub.ita.eng.iCV-MIRCrew


[center]by www.icv-crew.org


NO FOUND ONLY ORIGINAL RELEASE



My release is always in double track audio italian and Original audio
for select it use VLC or dvd player home
not use wmp

Manchester By The Sea (2016)

PRESENTI ANCHE i SOTTOTITOLI

ESTERNI IN SRT (ita/eng)







2017 - Premio Oscar

   Miglior attore protagonista a Casey Affleck
   Miglior sceneggiatura originale a Kenneth Lonergan
   Candidatura per il Miglior film
   Candidatura per la Miglior regia a Kenneth Lonergan
   Candidatura per il Miglior attore non protagonista a Lucas Hedges
   Candidatura per la Miglior attrice non protagonista a Michelle Williams

2017 - Premio Golden Globe

   Migliore attore in un film drammatico a Casey Affleck

Titolo originale Manchester by the Sea
Lingua originale inglese
Paese di produzione Stati Uniti d'America
Anno 2016
Durata 135 min
Genere drammatico
Regia Kenneth Lonergan
Sceneggiatura Kenneth Lonergan
Produttore Matt Damon, Kimberly Steward, Lauren Beck, Kevin Walsh, Chris Moore
Produttore esecutivo Josh Godfrey, Declan Baldwin, Bill Migliore, John Krasinski
Casa di produzione Amazon Studios, K Period Media
Distribuzione (Italia) Universal Pictures
Fotografia Jody Lee Lipes
Montaggio Jennifer Lame
Musiche Lesley Barber
Scenografia Ruth De Jong




   Casey Affleck: Lee Chandler
   Michelle Williams: Randi Chandler
   Kyle Chandler: Joseph "Joe" Chandler
   Lucas Hedges: Patrick Chandler
   C.J. Wilson: George
   Ben O'Brien: Patrick bambino
   Gretchen Mol: Elise Chandler
   Tate Donovan: allenatore di hockey
   Kara Hayward: Silvie McGann
   Anna Baryshnikov: Sandy
   Heather Burns: Jill
   Erica McDermott: Sue
   Matthew Broderick: Jeffrey
   Richard Donnelly: Martinez
   Virginia Loring Cooke: signora Groom
   Missy Yager: signora Olsen
   Stephen Henderson: Emery
   Robert Sella: Dr. Muller
   Tom Kemp: Stan Chandler
   Josh Hamilton: Wes
   Brian White: Jerry




Lee Chandler conduce una vita riservata e solitaria a Boston, dove lavora come portinaio e tuttofare. Un giorno riceve dal suo amico George la notizia che suo fratello Joe ha avuto un attacco cardiaco e si vede costretto a tornare nella sua città natale, Manchester-by-the-Sea, dove riesce però ad arrivare solo dopo la morte di Joe. ....................



An uncle is obliged to return home to care for his nephew after his brother dies. Not knowing that he has been named guardian, he struggles with the decision. Throughout the movie he recounts past memories that caused him to leave Manchester and distance himself from his past.








[spoiler]
General
Unique ID                                : 61996310673289836596716907532437347892 (0x2EA40E1C2127B1D3623177C9180ADE34)
Complete name                            : Manchester By The Sea (2016).H264.ita.eng.sub.ita.eng.iCV-MIRCrew.mkv
Format                                   : Matroska
Format version                           : Version 2
File size                                : 2.09 GiB
Duration                                 : 2h 17mn
Overall bit rate                         : 2 178 Kbps
Movie name                               : www.icv-crew.org
Encoded date                             : UTC 2017-04-30 20:36:36
Writing application                      : Lavf54.63.100
Writing library                          : Lavf54.63.100
COPYRIGHT                                : robbyrs

Video
ID                                       : 1
Format                                   : AVC
Format/Info                              : Advanced Video Codec
Format profile                           : [email protected]
Format settings, CABAC                   : Yes
Format settings, ReFrames                : 2 frames
Codec ID                                 : V_MPEG4/ISO/AVC
Duration                                 : 2h 17mn
Bit rate                                 : 1 290 Kbps
Width                                    : 720 pixels
Height                                   : 384 pixels
Display aspect ratio                     : 16:9
Frame rate mode                          : Variable
Frame rate                               : 23.976 fps
Color space                              : YUV
Chroma subsampling                       : 4:2:0
Bit depth                                : 8 bits
Scan type                                : Progressive
Bits/(Pixel*Frame)                       : 0.195
Stream size                              : 1.19 GiB (57%)
Writing library                          : x264 core 130 r2273
Encoding settings                        : cabac=1 / ref=2 / deblock=1:0:0 / analyse=0x1:0x131 / me=hex / subme=7 / psy=1 / psy_rd=1.00:0.00 / mixed_ref=0 / me_range=16 / chroma_me=1 / trellis=1 / 8x8dct=0 / cqm=0 / deadzone=21,11 / fast_pskip=1 / chroma_qp_offset=-2 / threads=12 / lookahead_threads=2 / sliced_threads=0 / nr=0 / decimate=1 / interlaced=0 / bluray_compat=0 / constrained_intra=0 / bframes=3 / b_pyramid=0 / b_adapt=1 / b_bias=0 / direct=3 / weightb=1 / open_gop=0 / weightp=2 / keyint=230 / keyint_min=23 / scenecut=40 / intra_refresh=0 / rc_lookahead=40 / rc=abr / mbtree=1 / bitrate=1290 / ratetol=1.0 / qcomp=0.60 / qpmin=10 / qpmax=69 / qpstep=4 / vbv_maxrate=24000 / vbv_bufsize=24000 / nal_hrd=none / ip_ratio=1.40 / aq=1:1.00
Language                                 : Italian
Default                                  : Yes
Forced                                   : No
DURATION                                 : 02:17:32.369000000
NUMBER_OF_FRAMES                         : 197859
NUMBER_OF_BYTES                          : 13077303329
_STATISTICS_WRITING_APP                  : mkvmerge v8.7.0 ('All of the above') 64bit
_STATISTICS_WRITING_DATE_UTC             : 2017-04-25 08:38:14
_STATISTICS_TAGS                         : BPS DURATION NUMBER_OF_FRAMES NUMBER_OF_BYTES

Audio #1
ID                                       : 2
Format                                   : AC-3
Format/Info                              : Audio Coding 3
Mode extension                           : CM (complete main)
Codec ID                                 : A_AC3
Duration                                 : 2h 17mn
Bit rate mode                            : Constant
Bit rate                                 : 448 Kbps
Channel(s)                               : 6 channels
Channel positions                        : Front: L C R, Side: L R, LFE
Sampling rate                            : 48.0 KHz
Bit depth                                : 16 bits
Compression mode                         : Lossy
Delay relative to video                  : 1mn 5s
Stream size                              : 441 MiB (21%)
Title                                    : AC3 ITA
Language                                 : Italian
Default                                  : No
Forced                                   : No
DURATION                                 : 02:17:27.680000000
NUMBER_OF_FRAMES                         : 257740
NUMBER_OF_BYTES                          : 659814400
_STATISTICS_WRITING_APP                  : mkvmerge v8.7.0 ('All of the above') 64bit
_STATISTICS_WRITING_DATE_UTC             : 2017-04-25 08:38:14
_STATISTICS_TAGS                         : BPS DURATION NUMBER_OF_FRAMES NUMBER_OF_BYTES

Audio #2
ID                                       : 3
Format                                   : AC-3
Format/Info                              : Audio Coding 3
Mode extension                           : CM (complete main)
Codec ID                                 : A_AC3
Duration                                 : 2h 17mn
Bit rate mode                            : Constant
Bit rate                                 : 448 Kbps
Channel(s)                               : 6 channels
Channel positions                        : Front: L C R, Side: L R, LFE
Sampling rate                            : 48.0 KHz
Bit depth                                : 16 bits
Compression mode                         : Lossy
Delay relative to video                  : 1mn 5s
Stream size                              : 441 MiB (21%)
Title                                    : AC3 ENG
Language                                 : English
Default                                  : No
Forced                                   : No
DURATION                                 : 02:17:32.320000000
NUMBER_OF_FRAMES                         : 257885
NUMBER_OF_BYTES                          : 660185600
_STATISTICS_WRITING_APP                  : mkvmerge v8.7.0 ('All of the above') 64bit
_STATISTICS_WRITING_DATE_UTC             : 2017-04-25 08:38:14
_STATISTICS_TAGS                         : BPS DURATION NUMBER_OF_FRAMES NUMBER_OF_BYTES

Text #1
ID                                       : 4
Format                                   : ASS
Codec ID                                 : S_TEXT/ASS
Codec ID/Info                            : Advanced Sub Station Alpha
Compression mode                         : Lossless
Title                                    : FORCED
Language                                 : Italian
Default                                  : Yes
Forced                                   : No
DURATION                                 : 02:01:13.223000000
NUMBER_OF_FRAMES                         : 22
NUMBER_OF_BYTES                          : 661
_STATISTICS_WRITING_APP                  : mkvmerge v8.7.0 ('All of the above') 64bit
_STATISTICS_WRITING_DATE_UTC             : 2017-04-25 08:38:14
_STATISTICS_TAGS                         : BPS DURATION NUMBER_OF_FRAMES NUMBER_OF_BYTES

Text #2
ID                                       : 5
Format                                   : ASS
Codec ID                                 : S_TEXT/ASS
Codec ID/Info                            : Advanced Sub Station Alpha
Compression mode                         : Lossless
Title                                    : REGULAR
Language                                 : Italian
Default                                  : No
Forced                                   : No
DURATION                                 : 02:14:53.292000000
NUMBER_OF_FRAMES                         : 1897
NUMBER_OF_BYTES                          : 57044
_STATISTICS_WRITING_APP                  : mkvmerge v8.7.0 ('All of the above') 64bit
_STATISTICS_WRITING_DATE_UTC             : 2017-04-25 08:38:14
_STATISTICS_TAGS                         : BPS DURATION NUMBER_OF_FRAMES NUMBER_OF_BYTES

Text #3
ID                                       : 6
Format                                   : ASS
Codec ID                                 : S_TEXT/ASS
Codec ID/Info                            : Advanced Sub Station Alpha
Compression mode                         : Lossless
Title                                    : REGULAR
Language                                 : English
Default                                  : No
Forced                                   : No
DURATION                                 : 02:09:36.267000000
NUMBER_OF_FRAMES                         : 1840
NUMBER_OF_BYTES                          : 66273
_STATISTICS_WRITING_APP                  : mkvmerge v8.7.0 ('All of the above') 64bit
_STATISTICS_WRITING_DATE_UTC             : 2017-04-25 08:38:14
_STATISTICS_TAGS                         : BPS DURATION NUMBER_OF_FRAMES NUMBER_OF_BYTES

Menu
00:00:00.000                             : :00:00:00.000
00:07:05.342                             : :00:07:05.342
00:14:28.201                             : :00:14:28.201
00:20:13.838                             : :00:20:13.838
00:29:27.099                             : :00:29:27.099
00:39:02.590                             : :00:39:02.590
00:50:56.804                             : :00:50:56.804
00:59:52.756                             : :00:59:52.756
01:08:53.129                             : :01:08:53.129
01:16:19.950                             : :01:16:19.950
01:25:27.706                             : :01:25:27.706
01:35:23.259                             : :01:35:23.259
01:45:16.300                             : :01:45:16:300
01:55:01.150                             : :01:55:01:150
02:05:00.150                             : :02:05:00:150


[/spoiler]

[/center]

Info: Per scaricare devi usare un client come uTorrent o Transmission
AnnounceURL
udp://tracker.coppersurfer.tk:6969/announce
Hash 2da4b56fb51337e7d4cc004dd9543989eda55b56
Peers seeds: 189 , leech: 37
Size 2.09 GB
Completato 2160x
Aggiunto 03.05.17 - 14:05:46
Uploader   robbyrs
Votazione (Voti: 0)


Condividi questo bittorrent:


html/blog:


bbcode/forum:




Aggiungi Commento


counter