* Dettagli Torrent   globale  | Commenti (0) 


- Testimone d accusa (1957).H264.Italian.English.Ac3.sub.ita.eng.iCV-MIRCrew -


Download via torrent:
Categoria bittorrent BDRip
Descrizione
Witness for the Prosecution - Testimone d'accusa (1957).H264.Italian.English.Ac3.sub.ita.eng.iCV-MIRCrew

[center]by www.icv-crew.org


NO FOUND ONLY ORIGINAL RELEASE



My release is always in double track audio italian and Original audio
for select it use VLC or dvd player home
not use wmp

Testimone d'accusa  - Witness for the Prosecution (1957)

PRESENTI ANCHE i SOTTOTITOLI

ESTERNI IN SRT (ita/eng)







Titolo originale Witness for the Prosecution
Paese di produzione Stati Uniti
Anno 1957
Durata 116 min
Colore B/N
Genere thriller
Regia Billy Wilder
Soggetto Agatha Christie
Sceneggiatura Billy Wilder
Produttore Arthur Hornblow Jr. per E. Small Production
Distribuzione (Italia) DEAR (1957)
Fotografia Russell Harlan
Montaggio Daniel Mandell
Musiche Matty Malneck, Ralph Arthur Robert
Scenografia Alexandre Trauner
Costumi Edith Head




   Tyrone Power: Leonard Stephen Vole
   Marlene Dietrich: Christine Helm Vole
   Charles Laughton: Wilfrid Robarts
   Elsa Lanchester: Miss Plimsoll
   Una O'Connor: Janet McKenzie
   John Williams: Brogan-Moore
   Henry Daniell: Mason
   Ian Wolfe: Carter
   Francis Compton: Giudice
   Norma Varden: Emily French
   Torin Thatcher: Myers
   Ruta Lee: Diana
   Philip Tonge: Isp. Hearne




Sir Wilfrid Robarts, un avvocato penalista di successo, torna al lavoro dopo settimane di degenza forzata in ospedale, in seguito a un infarto. Più deciso che mai a riprendere in mano casi e reputazione il più in fretta possibile, ignorando le disposizioni del proprio medico e della coriacea e petulante infermiera Miss Plimsoll, Robarts accetta di ricevere in studio il collega e procuratore Mayhew, che intende affidargli la difesa dello squattrinato e ingenuo Leonard Vole, accusato dell'omicidio di Emily French, una ricca vedova...........................



It's Britain, 1953. Upon his return to work following a heart attack, irrepressible barrister Sir Wilfrid Robarts, known as a barrister for the hopeless, takes on a murder case, much to the exasperation of his medical team, led by his overly regulated private nurse, Miss Plimsoll, who tries her hardest to ensure that he not return to his hard living ways - including excessive cigar smoking and drinking - while he takes his medication and gets his much needed rest. That case is defending American war veteran Leonard Vole, a poor, out of work, struggling inventor who is accused of murdering his fifty-six year old lonely and wealthy widowed acquaintance................








[spoiler]
General
Unique ID                                : 104386659905789481640944689935520506972 (0x4E8823B06BA38480448BBDAF9F36245C)
Complete name                            : Testimone d'accusa (1957).Ita.eng.sub.ita.eng.iCV-MIRCrew.mkv
Format                                   : Matroska
Format version                           : Version 2
File size                                : 1.36 GiB
Duration                                 : 1h 56mn
Overall bit rate                         : 1 678 Kbps
Movie name                               : www.icv-crew.org
Encoded date                             : UTC 2016-11-19 13:33:50
Writing application                      : Lavf54.63.100
Writing library                          : Lavf54.63.100
COPYRIGHT                                : robbyrs

Video
ID                                       : 1
Format                                   : AVC
Format/Info                              : Advanced Video Codec
Format profile                           : [email protected]
Format settings, CABAC                   : Yes
Format settings, ReFrames                : 2 frames
Codec ID                                 : V_MPEG4/ISO/AVC
Duration                                 : 1h 56mn
Bit rate                                 : 1 290 Kbps
Width                                    : 688 pixels
Height                                   : 400 pixels
Display aspect ratio                     : 1.668
Original display aspect ratio            : 1.667
Frame rate mode                          : Variable
Frame rate                               : 23.976 fps
Color space                              : YUV
Chroma subsampling                       : 4:2:0
Bit depth                                : 8 bits
Scan type                                : Progressive
Bits/(Pixel*Frame)                       : 0.196
Stream size                              : 1.02 GiB (75%)
Writing library                          : x264 core 130 r2273
Encoding settings                        : cabac=1 / ref=2 / deblock=1:0:0 / analyse=0x1:0x131 / me=hex / subme=7 / psy=1 / psy_rd=1.00:0.00 / mixed_ref=0 / me_range=16 / chroma_me=1 / trellis=1 / 8x8dct=0 / cqm=0 / deadzone=21,11 / fast_pskip=1 / chroma_qp_offset=-2 / threads=12 / lookahead_threads=2 / sliced_threads=0 / nr=0 / decimate=1 / interlaced=0 / bluray_compat=0 / constrained_intra=0 / bframes=3 / b_pyramid=0 / b_adapt=1 / b_bias=0 / direct=3 / weightb=1 / open_gop=0 / weightp=2 / keyint=230 / keyint_min=23 / scenecut=40 / intra_refresh=0 / rc_lookahead=40 / rc=abr / mbtree=1 / bitrate=1290 / ratetol=1.0 / qcomp=0.60 / qpmin=10 / qpmax=69 / qpstep=4 / vbv_maxrate=24000 / vbv_bufsize=24000 / nal_hrd=none / ip_ratio=1.40 / aq=1:1.00
Language                                 : Italian
Default                                  : Yes
Forced                                   : No

Audio #1
ID                                       : 2
Format                                   : AC-3
Format/Info                              : Audio Coding 3
Mode extension                           : CM (complete main)
Codec ID                                 : A_AC3
Duration                                 : 1h 56mn
Bit rate mode                            : Constant
Bit rate                                 : 192 Kbps
Channel(s)                               : 1 channel
Channel positions                        : Front: C
Sampling rate                            : 48.0 KHz
Bit depth                                : 16 bits
Compression mode                         : Lossy
Delay relative to video                  : 1mn 5s
Stream size                              : 160 MiB (11%)
Title                                    : Italiano AC3 1.0 192Kbps
Language                                 : Italian
Default                                  : Yes
Forced                                   : No

Audio #2
ID                                       : 3
Format                                   : AC-3
Format/Info                              : Audio Coding 3
Mode extension                           : CM (complete main)
Codec ID                                 : A_AC3
Duration                                 : 1h 56mn
Bit rate mode                            : Constant
Bit rate                                 : 192 Kbps
Channel(s)                               : 1 channel
Channel positions                        : Front: C
Sampling rate                            : 48.0 KHz
Bit depth                                : 16 bits
Compression mode                         : Lossy
Delay relative to video                  : 1mn 5s
Stream size                              : 160 MiB (11%)
Title                                    : English AC3 1.0 192Kbps
Language                                 : English
Default                                  : No
Forced                                   : No

Text #1
ID                                       : 4
Format                                   : ASS
Codec ID                                 : S_TEXT/ASS
Codec ID/Info                            : Advanced Sub Station Alpha
Compression mode                         : Lossless
Title                                    : Italiano
Language                                 : Italian
Default                                  : No
Forced                                   : No

Text #2
ID                                       : 5
Format                                   : ASS
Codec ID                                 : S_TEXT/ASS
Codec ID/Info                            : Advanced Sub Station Alpha
Compression mode                         : Lossless
Title                                    : English
Language                                 : English
Default                                  : No
Forced                                   : No

Menu
00:00:00.000                             : :00:00:00.000
00:01:50.819                             : :00:01:50.819
00:08:43.523                             : :00:08:43.523
00:18:31.569                             : :00:18:31.569
00:33:15.952                             : :00:33:15.952
00:49:12.491                             : :00:49:12.491
00:55:27.616                             : :00:55:27.616
01:11:22.820                             : :01:11:22.820
01:27:46.261                             : :01:27:46.261
01:48:24.873                             : :01:48:24.873
01:55:59.703                             : :01:55:59.703



[/spoiler]

[/center]

Info: Per scaricare devi usare un client come uTorrent o Transmission
AnnounceURL
udp://tracker.coppersurfer.tk:6969/announce
Hash 2394cce5440052c194bdefb996d677791d5a3771
Peers seeds: 22 , leech: 5
Size 1.36 GB
Completato 343x
Aggiunto 01.05.17 - 13:05:08
Uploader   robbyrs
Votazione (Voti: 0)


Condividi questo bittorrent:


html/blog:


bbcode/forum:




Aggiungi Commento


counter