* Dettagli Torrent   globale  | Commenti (0) 


- Ubriaco d amore (2002).H264.Italian.English.Ac3.5.1.sub.ita.eng.iCV-MIRCrew -


Download via torrent:
Categoria bittorrent BDRip
Descrizione
Punch-Drunk Love - Ubriaco d'amore (2002).H264.Italian.English.Ac3.5.1.sub.ita.eng.iCV-MIRCrew


[center]by www.icv-crew.org


NO FOUND ONLY ORIGINAL RELEASE



My release is always in double track audio italian and Original audio
for select it use VLC or dvd player home
not use wmp

Ubriaco d'amore - Punch-Drunk Love (2002)

PRESENTI ANCHE i SOTTOTITOLI

ESTERNI IN SRT (ita/eng)







Titolo originale Punch-Drunk Love
Paese di produzione USA
Anno 2002
Durata 95 min
Rapporto 2,35:1
Genere commedia, drammatico, sentimentale
Regia Paul Thomas Anderson
Soggetto Paul Thomas Anderson
Sceneggiatura Paul Thomas Anderson
Produttore Paul Thomas Anderson, Daniel P. Collins, Daniel Lupi, JoAnne Sellar
Casa di produzione New Line Cinema, Revolution Studios
Distribuzione (Italia) Columbia Pictures
Fotografia Robert Elswit
Montaggio Leslie Jones
Effetti speciali Industrial Light & Magic
Musiche Jon Brion
Scenografia William Arnold, Sue Chan
Costumi Mark Bridges



   Adam Sandler: Barry Egan
   Emily Watson: Lena Leonard
   Philip Seymour Hoffman: Dean Trumbell
   Luis Guzmán: Lance
   Mary Lynn Rajskub: Elizabeth



Barry è un piccolo imprenditore, la sua ditta vende sturalavandini e articoli simili. Il fatto di essere l'unico maschio in mezzo a sette sorelle sembra aver avuto ripercussioni sulla sua personalità: ha un comportamento generalmente passivo, che a volte compensa con violenti scatti di ira.



A psychologically troubled novelty supplier is nudged towards a romance with an English woman, all the while being extorted by a phone-sex line run by a crooked mattress salesman, and purchasing stunning amounts of pudding.











[spoiler]
General
Unique ID                                : 74980190910441356088249006588635307039 (0x3868A8D46771D6B8F66509B5F836DC1F)
Complete name                            : Ubriaco d'amore - Punch-Drunk Love (2002).H264.ita.eng.sub.ita.eng.iCV-MIRCrew.mkv
Format                                   : Matroska
Format version                           : Version 2
File size                                : 1.45 GiB
Duration                                 : 1h 35mn
Overall bit rate                         : 2 181 Kbps
Movie name                               : www.icv-crew.org
Encoded date                             : UTC 2016-11-17 17:02:31
Writing application                      : Lavf54.63.100
Writing library                          : Lavf54.63.100
COPYRIGHT                                : robbyrs

Video
ID                                       : 1
Format                                   : AVC
Format/Info                              : Advanced Video Codec
Format profile                           : [email protected]
Format settings, CABAC                   : Yes
Format settings, ReFrames                : 2 frames
Codec ID                                 : V_MPEG4/ISO/AVC
Duration                                 : 1h 35mn
Bit rate                                 : 1 290 Kbps
Width                                    : 688 pixels
Height                                   : 288 pixels
Display aspect ratio                     : 2.40:1
Frame rate mode                          : Variable
Frame rate                               : 23.976 fps
Color space                              : YUV
Chroma subsampling                       : 4:2:0
Bit depth                                : 8 bits
Scan type                                : Progressive
Bits/(Pixel*Frame)                       : 0.272
Stream size                              : 847 MiB (57%)
Writing library                          : x264 core 130 r2273
Encoding settings                        : cabac=1 / ref=2 / deblock=1:0:0 / analyse=0x1:0x131 / me=hex / subme=7 / psy=1 / psy_rd=1.00:0.00 / mixed_ref=0 / me_range=16 / chroma_me=1 / trellis=1 / 8x8dct=0 / cqm=0 / deadzone=21,11 / fast_pskip=1 / chroma_qp_offset=-2 / threads=12 / lookahead_threads=2 / sliced_threads=0 / nr=0 / decimate=1 / interlaced=0 / bluray_compat=0 / constrained_intra=0 / bframes=3 / b_pyramid=0 / b_adapt=1 / b_bias=0 / direct=3 / weightb=1 / open_gop=0 / weightp=2 / keyint=230 / keyint_min=23 / scenecut=40 / intra_refresh=0 / rc_lookahead=40 / rc=abr / mbtree=1 / bitrate=1290 / ratetol=1.0 / qcomp=0.60 / qpmin=10 / qpmax=69 / qpstep=4 / vbv_maxrate=24000 / vbv_bufsize=24000 / nal_hrd=none / ip_ratio=1.40 / aq=1:1.00
Language                                 : Italian
Default                                  : Yes
Forced                                   : No

Audio #1
ID                                       : 2
Format                                   : AC-3
Format/Info                              : Audio Coding 3
Mode extension                           : CM (complete main)
Codec ID                                 : A_AC3
Duration                                 : 1h 35mn
Bit rate mode                            : Constant
Bit rate                                 : 448 Kbps
Channel(s)                               : 6 channels
Channel positions                        : Front: L C R, Side: L R, LFE
Sampling rate                            : 48.0 KHz
Bit depth                                : 16 bits
Compression mode                         : Lossy
Delay relative to video                  : 1mn 5s
Stream size                              : 305 MiB (21%)
Title                                    : Italiano AC3 5.1 448kbps
Language                                 : Italian
Default                                  : Yes
Forced                                   : No

Audio #2
ID                                       : 3
Format                                   : AC-3
Format/Info                              : Audio Coding 3
Mode extension                           : CM (complete main)
Codec ID                                 : A_AC3
Duration                                 : 1h 35mn
Bit rate mode                            : Constant
Bit rate                                 : 448 Kbps
Channel(s)                               : 6 channels
Channel positions                        : Front: L C R, Side: L R, LFE
Sampling rate                            : 48.0 KHz
Bit depth                                : 16 bits
Compression mode                         : Lossy
Delay relative to video                  : 1mn 5s
Stream size                              : 305 MiB (21%)
Title                                    : English AC3 5.1 448kbps
Language                                 : English
Default                                  : No
Forced                                   : No

Text #1
ID                                       : 4
Format                                   : ASS
Codec ID                                 : S_TEXT/ASS
Codec ID/Info                            : Advanced Sub Station Alpha
Compression mode                         : Lossless
Title                                    : Italiano
Language                                 : Italian
Default                                  : No
Forced                                   : No

Text #2
ID                                       : 5
Format                                   : ASS
Codec ID                                 : S_TEXT/ASS
Codec ID/Info                            : Advanced Sub Station Alpha
Compression mode                         : Lossless
Title                                    : English
Language                                 : English
Default                                  : No
Forced                                   : No

Menu
00:00:00.000                             : :00:00:00.000
00:10:46.145                             : :00:10:46.145
00:20:38.320                             : :00:20:38.320
00:29:32.437                             : :00:29:32.437
00:41:50.842                             : :00:41:50.842
00:55:04.635                             : :00:55:04.635
01:00:17.906                             : :01:00:17.906
01:15:01.414                             : :01:15:01.414
01:21:23.962                             : :01:21:23.962
01:27:23.530                             : :01:27:23.530



[/spoiler]

[/center]

Info: Per scaricare devi usare un client come uTorrent o Transmission
AnnounceURL
udp://tracker.coppersurfer.tk:6969/announce
Hash a942758afcbc986d844c08c71c7ddde2320f6f36
Peers seeds: 30 , leech: 6
Size 1.45 GB
Completato 648x
Aggiunto 01.05.17 - 12:05:10
Uploader   robbyrs
Votazione (Voti: 2)


Condividi questo bittorrent:


html/blog:


bbcode/forum:




Aggiungi Commento


counter