* Dettagli Torrent   globale  | Commenti (0) 


- Silence (2016).H264.Italian.English.Ac3.5.1.sub.ita.eng.iCV-MIRCrew -


Download via torrent:
Categoria bittorrent BDRip
Descrizione
Silence (2016).H264.Italian.English.Ac3.5.1.sub.ita.eng.iCV-MIRCrew

[center]by www.icv-crew.org


NO FOUND ONLY ORIGINAL RELEASE



My release is always in double track audio italian and Original audio
for select it use VLC or dvd player home
not use wmp

Silence (2016)

PRESENTI ANCHE i SOTTOTITOLI

ESTERNI IN SRT (ita/eng)







Titolo originale Silence
Lingua originale inglese, giapponese
Paese di produzione Stati Uniti, Taiwan, Messico, Italia, Regno Unito, Giappone
Anno 2016
Durata 161 min[1]
Rapporto 2.35: 1
Genere drammatico, storico
Regia Martin Scorsese
Soggetto Sh?saku End? (romanzo)
Sceneggiatura Jay Cocks, Martin Scorsese
Produttore Barbara De Fina, Randall Emmett, Vittorio Cecchi Gori, Martin Scorsese, Irwin Winkler, Emma Tillinger Koskoff, Gaston Pavlovich
Casa di produzione Cappa Defina Productions, Cecchi Gori Pictures, Corsan, Emmett/Furla/Oasis Films, Sikelia Productions, AI-Film, Fábrica de Cine, SharpSword Films, IM Global
Distribuzione (Italia) 01 Distribution
Fotografia Rodrigo Prieto
Montaggio Thelma Schoonmaker
Musiche Kim Allen Kluge, Kathryn Kluge
Scenografia Dante Ferretti, Francesca Lo Schiavo
Costumi Dante Ferretti




   Andrew Garfield: Padre Sebastião Rodrigues
   Adam Driver: Padre Francisco Garupe
   Liam Neeson: Padre Cristóvão Ferreira
   Tadanobu Asano: interprete
   Ciarán Hinds: Padre Alessandro Valignano
   Shinya Tsukamoto: Mokichi
   Y?suke Kubozuka: Kichijiro
   Issei Ogata: Inoue Masahige
   Yoshi Oida: Ichizo
   Nana Komatsu: Monica (Haru)
   Ryo Kase: Juan (Chokichi)
   Yasunari Takeshima: Haku
   Tetsuya Igawa: gesuita
   Béla Baptiste: Dieter Albrecht




A Macao, i due giovani gesuiti portoghesi, Sebastião Rodrigues e Francisco Garupe, vengono a sapere, da padre Alessandro Valignano, che il loro confessore, Cristovão Fereira, missionario in Giappone, dopo essere stato torturato, ha fatto voto di apostasia ed ha abbracciato lo stile di vita giapponese. I due non vogliono credere alla notizia e decidono di mettersi alla ricerca del loro padre spirituale...................



In the 17th century, two Portuguese Jesuit priests travel to Japan in an attempt to locate their mentor, who is rumored to have committed apostasy, and to propagate Catholicism.








[spoiler]
General
Unique ID                                : 156857298755583217567548134262745809733 (0x76019DEAFD58976F499EDB89074B4345)
Complete name                            : Silence (2016).H264.ita.eng.sub.ita.iCV-MIRCrew\Silence (2016).H264.ita.eng.sub.ita.iCV-MIRCrew.mkv
Format                                   : Matroska
Format version                           : Version 2
File size                                : 2.41 GiB
Duration                                 : 2h 41mn
Overall bit rate                         : 2 140 Kbps
Movie name                               : www.icv-crew.org
Encoded date                             : UTC 2017-04-28 21:14:43
Writing application                      : Lavf54.63.100
Writing library                          : Lavf54.63.100
COPYRIGHT                                : robbyrs

Video
ID                                       : 1
Format                                   : AVC
Format/Info                              : Advanced Video Codec
Format profile                           : [email protected]
Format settings, CABAC                   : Yes
Format settings, ReFrames                : 2 frames
Codec ID                                 : V_MPEG4/ISO/AVC
Duration                                 : 2h 41mn
Bit rate                                 : 1 201 Kbps
Nominal bit rate                         : 1 290 Kbps
Width                                    : 720 pixels
Height                                   : 304 pixels
Display aspect ratio                     : 2.40:1
Frame rate mode                          : Variable
Frame rate                               : 23.976 fps
Color space                              : YUV
Chroma subsampling                       : 4:2:0
Bit depth                                : 8 bits
Scan type                                : Progressive
Bits/(Pixel*Frame)                       : 0.229
Stream size                              : 1.35 GiB (56%)
Writing library                          : x264 core 130 r2273
Encoding settings                        : cabac=1 / ref=2 / deblock=1:0:0 / analyse=0x1:0x131 / me=hex / subme=7 / psy=1 / psy_rd=1.00:0.00 / mixed_ref=0 / me_range=16 / chroma_me=1 / trellis=1 / 8x8dct=0 / cqm=0 / deadzone=21,11 / fast_pskip=1 / chroma_qp_offset=-2 / threads=12 / lookahead_threads=2 / sliced_threads=0 / nr=0 / decimate=1 / interlaced=0 / bluray_compat=0 / constrained_intra=0 / bframes=3 / b_pyramid=0 / b_adapt=1 / b_bias=0 / direct=3 / weightb=1 / open_gop=0 / weightp=2 / keyint=230 / keyint_min=23 / scenecut=40 / intra_refresh=0 / rc_lookahead=40 / rc=abr / mbtree=1 / bitrate=1290 / ratetol=1.0 / qcomp=0.60 / qpmin=10 / qpmax=69 / qpstep=4 / vbv_maxrate=24000 / vbv_bufsize=24000 / nal_hrd=none / ip_ratio=1.40 / aq=1:1.00
Language                                 : Italian
Default                                  : Yes
Forced                                   : No
DURATION                                 : 02:41:09.493000000
NUMBER_OF_FRAMES                         : 231836
NUMBER_OF_BYTES                          : 11089255293
_STATISTICS_WRITING_APP                  : mkvmerge v8.7.0 ('All of the above') 64bit
_STATISTICS_WRITING_DATE_UTC             : 2017-04-27 15:03:04
_STATISTICS_TAGS                         : BPS DURATION NUMBER_OF_FRAMES NUMBER_OF_BYTES

Audio #1
ID                                       : 2
Format                                   : AC-3
Format/Info                              : Audio Coding 3
Mode extension                           : CM (complete main)
Codec ID                                 : A_AC3
Duration                                 : 2h 41mn
Bit rate mode                            : Constant
Bit rate                                 : 448 Kbps
Channel(s)                               : 6 channels
Channel positions                        : Front: L C R, Side: L R, LFE
Sampling rate                            : 48.0 KHz
Bit depth                                : 16 bits
Compression mode                         : Lossy
Delay relative to video                  : 1mn 5s
Stream size                              : 517 MiB (21%)
Title                                    : AC3 ITA
Language                                 : Italian
Default                                  : No
Forced                                   : No
DURATION                                 : 02:41:14.368000000
NUMBER_OF_FRAMES                         : 302324
NUMBER_OF_BYTES                          : 773949440
_STATISTICS_WRITING_APP                  : mkvmerge v8.7.0 ('All of the above') 64bit
_STATISTICS_WRITING_DATE_UTC             : 2017-04-27 15:03:04
_STATISTICS_TAGS                         : BPS DURATION NUMBER_OF_FRAMES NUMBER_OF_BYTES

Audio #2
ID                                       : 3
Format                                   : AC-3
Format/Info                              : Audio Coding 3
Mode extension                           : CM (complete main)
Codec ID                                 : A_AC3
Duration                                 : 2h 41mn
Bit rate mode                            : Constant
Bit rate                                 : 448 Kbps
Channel(s)                               : 6 channels
Channel positions                        : Front: L C R, Side: L R, LFE
Sampling rate                            : 48.0 KHz
Bit depth                                : 16 bits
Compression mode                         : Lossy
Delay relative to video                  : 1mn 5s
Stream size                              : 517 MiB (21%)
Title                                    : AC3 ENG
Language                                 : English
Default                                  : No
Forced                                   : No
DURATION                                 : 02:41:09.536000000
NUMBER_OF_FRAMES                         : 302173
NUMBER_OF_BYTES                          : 773562880
_STATISTICS_WRITING_APP                  : mkvmerge v8.7.0 ('All of the above') 64bit
_STATISTICS_WRITING_DATE_UTC             : 2017-04-27 15:03:04
_STATISTICS_TAGS                         : BPS DURATION NUMBER_OF_FRAMES NUMBER_OF_BYTES

Text #1
ID                                       : 4
Format                                   : ASS
Codec ID                                 : S_TEXT/ASS
Codec ID/Info                            : Advanced Sub Station Alpha
Compression mode                         : Lossless
Title                                    : FORCED
Language                                 : Italian
Default                                  : Yes
Forced                                   : No
DURATION                                 : 01:51:06.454000000
NUMBER_OF_FRAMES                         : 153
NUMBER_OF_BYTES                          : 4039
_STATISTICS_WRITING_APP                  : mkvmerge v8.7.0 ('All of the above') 64bit
_STATISTICS_WRITING_DATE_UTC             : 2017-04-27 15:03:04
_STATISTICS_TAGS                         : BPS DURATION NUMBER_OF_FRAMES NUMBER_OF_BYTES

Text #2
ID                                       : 5
Format                                   : ASS
Codec ID                                 : S_TEXT/ASS
Codec ID/Info                            : Advanced Sub Station Alpha
Compression mode                         : Lossless
Title                                    : N.U.
Language                                 : Italian
Default                                  : No
Forced                                   : No
DURATION                                 : 02:31:19.413000000
NUMBER_OF_FRAMES                         : 1382
NUMBER_OF_BYTES                          : 48458
_STATISTICS_WRITING_APP                  : mkvmerge v8.7.0 ('All of the above') 64bit
_STATISTICS_WRITING_DATE_UTC             : 2017-04-27 15:03:04
_STATISTICS_TAGS                         : BPS DURATION NUMBER_OF_FRAMES NUMBER_OF_BYTES

Menu
00:00:00.000                             : :00:00:00.000
00:07:05.342                             : :00:07:05.342
00:14:28.201                             : :00:14:28.201
00:20:13.838                             : :00:20:13.838
00:29:27.099                             : :00:29:27.099
00:39:02.590                             : :00:39:02.590
00:50:56.804                             : :00:50:56.804
00:59:52.756                             : :00:59:52.756
01:08:53.129                             : :01:08:53.129
01:16:19.950                             : :01:16:19.950
01:25:27.706                             : :01:25:27.706
01:35:23.259                             : :01:35:23.259
01:45:16.300                             : :01:45:16:300
01:55:01.150                             : :01:55:01:150
02:05:00.150                             : :02:05:00:150
02:20:00.456                             : :02:20:00:456
02:30:24.329                             : :02:30:24:329


[/spoiler]

[/center]

Info: Per scaricare devi usare un client come uTorrent o Transmission
AnnounceURL
udp://tracker.coppersurfer.tk:6969/announce
Hash 417e89dd6a4e32a41a915cc694ae7eb9f127a7a1
Peers seeds: 343 , leech: 64
Size 2.41 GB
Completato 3869x
Aggiunto 30.04.17 - 09:04:22
Uploader   robbyrs
Votazione (Voti: 1)


Condividi questo bittorrent:


html/blog:


bbcode/forum:




Aggiungi Commento


counter