* Dettagli Torrent   globale  | Commenti (0) 


- Shaft (2000).H264.Italian.English.Ac3 5.1.sub.ita.eng.iCV-MIRCrew -


Download via torrent:
Categoria bittorrent BDRip
Descrizione
Shaft (2000).H264.Italian.English.Ac3 5.1.sub.ita.eng.iCV-MIRCrew

[center]by www.icv-crew.org


NO FOUND ONLY ORIGINAL RELEASE



My release is always in double track audio italian and Original audio
for select it use VLC or dvd player home
not use wmp

Shaft (2000)

PRESENTI ANCHE i SOTTOTITOLI

ESTERNI IN SRT (ita/eng)







Titolo originale Shaft
Paese di produzione Stati Uniti
Anno 2000
Durata 99 min
Genere poliziesco, thriller, azione
Regia John Singleton
Soggetto Ernest Tidyman
Sceneggiatura John Singleton, Shane Salerno, Richard Price
Produttore John Singleton, Mark Roybal, Scott Rudin, Eric Steel
Distribuzione (Italia) 01 Distribution
Fotografia Donald E. Thorin
Montaggio John Bloom, Antonia Van Drimmelen
Musiche David Arnold
Scenografia Patrizia von Brandenstein



   Samuel L. Jackson: John Shaft
   Vanessa Williams: Carmen Vasquez
   Jeffrey Wright: Peoples Hernandez
   Christian Bale: Walter Wade, Jr.
   Busta Rhymes: Rasaan
   Dan Hedaya: Jack Roselli
   Toni Collette: Diane Palmieri
   Lee Tergesen: Luger
   Mekhi Phifer: Trey Howard
   Richard Roundtree: zio John Shaft



Il ricco e viziato universitario Walter Wade uccide uno studente nero, e il detective John Shaft lo arresta. Il ragazzo non si presenta in tribunale, lascia il paese, e solo dopo due anni Shaft riesce a riportarlo in galera, arrestandolo non appena rimette piede in incognito negli States. Quando il padre gli paga la cauzione da un milione di dollari................



New York City police detective John Shaft (nephew of the original 1970s detective) goes on a personal mission to make sure the son of a real estate tycoon is brought to justice after a racially-motivated murder.  








[spoiler]
General
Unique ID                                : 164487308517817881840503861655173365770 (0x7BBF1A7184077132C367E86C3A4C800A)
Complete name                            : Shaft (2000).H264.Ita.Eng.Sub.Ita.NUita.Eng.iCV-MIRCrew\Shaft (2000).H264.Ita.Eng.Sub.Ita.Eng.iCV-MIRCrew.mkv
Format                                   : Matroska
Format version                           : Version 2
File size                                : 1.43 GiB
Duration                                 : 1h 39mn
Overall bit rate                         : 2 063 Kbps
Movie name                               : www.icv-crew.org
Encoded date                             : UTC 2017-04-25 16:59:08
Writing application                      : Lavf54.63.100
Writing library                          : Lavf54.63.100
COPYRIGHT                                : robbyrs

Video
ID                                       : 1
Format                                   : AVC
Format/Info                              : Advanced Video Codec
Format profile                           : [email protected]
Format settings, CABAC                   : Yes
Format settings, ReFrames                : 2 frames
Codec ID                                 : V_MPEG4/ISO/AVC
Duration                                 : 1h 39mn
Bit rate                                 : 1 290 Kbps
Width                                    : 720 pixels
Height                                   : 300 pixels
Display aspect ratio                     : 2.40:1
Frame rate mode                          : Variable
Frame rate                               : 23.976 fps
Color space                              : YUV
Chroma subsampling                       : 4:2:0
Bit depth                                : 8 bits
Scan type                                : Progressive
Bits/(Pixel*Frame)                       : 0.249
Stream size                              : 891 MiB (61%)
Writing library                          : x264 core 130 r2273
Encoding settings                        : cabac=1 / ref=2 / deblock=1:0:0 / analyse=0x1:0x131 / me=hex / subme=7 / psy=1 / psy_rd=1.00:0.00 / mixed_ref=0 / me_range=16 / chroma_me=1 / trellis=1 / 8x8dct=0 / cqm=0 / deadzone=21,11 / fast_pskip=1 / chroma_qp_offset=-2 / threads=12 / lookahead_threads=2 / sliced_threads=0 / nr=0 / decimate=1 / interlaced=0 / bluray_compat=0 / constrained_intra=0 / bframes=3 / b_pyramid=0 / b_adapt=1 / b_bias=0 / direct=3 / weightb=1 / open_gop=0 / weightp=2 / keyint=230 / keyint_min=23 / scenecut=40 / intra_refresh=0 / rc_lookahead=40 / rc=abr / mbtree=1 / bitrate=1290 / ratetol=1.0 / qcomp=0.60 / qpmin=10 / qpmax=69 / qpstep=4 / vbv_maxrate=24000 / vbv_bufsize=24000 / nal_hrd=none / ip_ratio=1.40 / aq=1:1.00
Default                                  : Yes
Forced                                   : No
DURATION                                 : 01:39:19.037000000
NUMBER_OF_FRAMES                         : 142874
NUMBER_OF_BYTES                          : 1471758933
_STATISTICS_WRITING_APP                  : mkvmerge v9.4.2 ('So High') 64bit
_STATISTICS_WRITING_DATE_UTC             : 2016-11-23 15:42:40
_STATISTICS_TAGS                         : BPS DURATION NUMBER_OF_FRAMES NUMBER_OF_BYTES

Audio #1
ID                                       : 2
Format                                   : AC-3
Format/Info                              : Audio Coding 3
Mode extension                           : CM (complete main)
Codec ID                                 : A_AC3
Duration                                 : 1h 39mn
Bit rate mode                            : Constant
Bit rate                                 : 384 Kbps
Channel(s)                               : 6 channels
Channel positions                        : Front: L C R, Side: L R, LFE
Sampling rate                            : 48.0 KHz
Bit depth                                : 16 bits
Compression mode                         : Lossy
Delay relative to video                  : 1mn 5s
Stream size                              : 273 MiB (19%)
Title                                    : Italiano
Language                                 : Italian
Default                                  : Yes
Forced                                   : Yes
DURATION                                 : 01:39:17.984000000
NUMBER_OF_FRAMES                         : 186187
NUMBER_OF_BYTES                          : 476638720
_STATISTICS_WRITING_APP                  : mkvmerge v9.4.2 ('So High') 64bit
_STATISTICS_WRITING_DATE_UTC             : 2016-11-23 15:42:40
_STATISTICS_TAGS                         : BPS DURATION NUMBER_OF_FRAMES NUMBER_OF_BYTES

Audio #2
ID                                       : 3
Format                                   : AC-3
Format/Info                              : Audio Coding 3
Mode extension                           : CM (complete main)
Codec ID                                 : A_AC3
Duration                                 : 1h 39mn
Bit rate mode                            : Constant
Bit rate                                 : 384 Kbps
Channel(s)                               : 6 channels
Channel positions                        : Front: L C R, Side: L R, LFE
Sampling rate                            : 48.0 KHz
Bit depth                                : 16 bits
Compression mode                         : Lossy
Delay relative to video                  : 1mn 5s
Stream size                              : 273 MiB (19%)
Title                                    : English
Language                                 : English
Default                                  : No
Forced                                   : No
DURATION                                 : 01:39:20.064000000
NUMBER_OF_FRAMES                         : 186252
NUMBER_OF_BYTES                          : 166881792
_STATISTICS_WRITING_APP                  : mkvmerge v9.4.2 ('So High') 64bit
_STATISTICS_WRITING_DATE_UTC             : 2016-11-23 15:42:40
_STATISTICS_TAGS                         : BPS DURATION NUMBER_OF_FRAMES NUMBER_OF_BYTES

Text #1
ID                                       : 4
Format                                   : ASS
Codec ID                                 : S_TEXT/ASS
Codec ID/Info                            : Advanced Sub Station Alpha
Compression mode                         : Lossless
Title                                    : Italiano - Forced
Language                                 : Italian
Default                                  : Yes
Forced                                   : Yes
DURATION                                 : 01:27:55.984000000
NUMBER_OF_FRAMES                         : 27
NUMBER_OF_BYTES                          : 482
_STATISTICS_WRITING_APP                  : mkvmerge v9.4.2 ('So High') 64bit
_STATISTICS_WRITING_DATE_UTC             : 2016-11-23 15:42:40
_STATISTICS_TAGS                         : BPS DURATION NUMBER_OF_FRAMES NUMBER_OF_BYTES

Text #2
ID                                       : 5
Format                                   : ASS
Codec ID                                 : S_TEXT/ASS
Codec ID/Info                            : Advanced Sub Station Alpha
Compression mode                         : Lossless
Title                                    : Italiano
Language                                 : Italian
Default                                  : No
Forced                                   : No
DURATION                                 : 01:32:00.604000000
NUMBER_OF_FRAMES                         : 819
NUMBER_OF_BYTES                          : 29609
_STATISTICS_WRITING_APP                  : mkvmerge v9.4.2 ('So High') 64bit
_STATISTICS_WRITING_DATE_UTC             : 2016-11-23 15:42:40
_STATISTICS_TAGS                         : BPS DURATION NUMBER_OF_FRAMES NUMBER_OF_BYTES

Text #3
ID                                       : 6
Format                                   : ASS
Codec ID                                 : S_TEXT/ASS
Codec ID/Info                            : Advanced Sub Station Alpha
Compression mode                         : Lossless
Title                                    : English
Language                                 : English
Default                                  : No
Forced                                   : No
DURATION                                 : 01:36:23.242000000
NUMBER_OF_FRAMES                         : 1299
NUMBER_OF_BYTES                          : 43726
_STATISTICS_WRITING_APP                  : mkvmerge v9.4.2 ('So High') 64bit
_STATISTICS_WRITING_DATE_UTC             : 2016-11-23 15:42:40
_STATISTICS_TAGS                         : BPS DURATION NUMBER_OF_FRAMES NUMBER_OF_BYTES


[/spoiler]

[/center]

Info: Per scaricare devi usare un client come uTorrent o Transmission
AnnounceURL
udp://tracker.coppersurfer.tk:6969/announce
Hash fb3c587a7d143b6afe6f46951859344d24102668
Peers seeds: 61 , leech: 11
Size 1.43 GB
Completato 936x
Aggiunto 29.04.17 - 13:04:09
Uploader   robbyrs
Votazione (Voti: 0)


Condividi questo bittorrent:


html/blog:


bbcode/forum:




Aggiungi Commento


counter