* Dettagli Torrent   globale  | Commenti (0) 


- Cate Mc.Call - Il confine della verità (2013).H264.Italian.English.Ac3.sub.ita.iCV-MIRCrew -


Download via torrent:
Categoria bittorrent BDRip
Descrizione
The Trials of Cate - Mc.Call  - Cate McCall - Il confine della verità (2013).H264.Italian.English.Ac3.sub.ita.iCV-MIRCrew

[center]by www.icv-crew.org


NO FOUND ONLY ORIGINAL RELEASE



My release is always in double track audio italian and Original audio
for select it use VLC or dvd player home
not use wmp

The Trials of Cate - Mc.Call  - Cate McCall - Il confine della verità (2013)







Titolo originale The Trials of Cate McCall
Paese di produzione Stati Uniti d'America
Anno 2013
Durata 89
Genere drammatico
Regia Karen Moncrieff
Soggetto Claudio Carvalho
Sceneggiatura Karen Moncrieff
Produttore Marc Bienstock
Produttore esecutivo Joe Dain
Fotografia Antonio Calvache
Montaggio Toby Yates
Musiche Pater Nashel
Scenografia Wayne Shepherd
Costumi Maya Lieberman
Trucco Barbara Lorenz




   Kate Beckinsale: Cate McCall
   Nick Nolte: Bridges
   Clancy Brown: Randall Brinkerhoff
   David Lyons: Josh
   Mark Pellegrino: Detective Robert Welch
   James Cromwell: giudice Jamison Sumpter
   Isaiah Washington: Wilson George
   Anna Anissimova: Lacey




Los Angeles, California. La giovane Cate McCall, brillante avvocatessa un po' troppo affezionata alla bottiglia, si sottopone ad una terapia antialcolica. Un giudice, con il quale ha avuto da dire, la fa sottoporre a test antialcolico e l'Ordine degli avvocati la confina in prova presso un tribunale minore. ...........



In order to be reinstated to the bar and recover custody of her daughter, a hotshot lawyer, now in recovery and on probation, must take on the appeal of a woman wrongfully convicted of murder. .  








[spoiler]
General
Unique ID                                : 79252940471773771026366426810441592104 (0x3B9F8FA5CAB6774E5460BDEB9994ED2
Complete name                            : The Trials of Cate - Mc.Call (2013).H264.ita.eng.sub.ita.iCV-MIRCrew.mkv
Format                                   : Matroska
Format version                           : Version 2
File size                                : 1.09 GiB
Duration                                 : 1h 32mn
Overall bit rate                         : 1 682 Kbps
Movie name                               : The Trials of Cate McCall (2013)
Encoded date                             : UTC 2017-04-25T15:57:11Z
Writing application                      : HandBrake 0.10.5 2016021100
Writing library                          : Lavf55.12.0

Video
ID                                       : 1
Format                                   : AVC
Format/Info                              : Advanced Video Codec
Format profile                           : [email protected]
Format settings, CABAC                   : Yes
Format settings, ReFrames                : 4 frames
Codec ID                                 : V_MPEG4/ISO/AVC
Duration                                 : 1h 32mn
Bit rate                                 : 1 290 Kbps
Width                                    : 688 pixels
Height                                   : 374 pixels
Display aspect ratio                     : 16:9
Original display aspect ratio            : 16:9
Frame rate mode                          : Variable
Frame rate                               : 23.976 fps
Color space                              : YUV
Chroma subsampling                       : 4:2:0
Bit depth                                : 8 bits
Scan type                                : Progressive
Bits/(Pixel*Frame)                       : 0.209
Stream size                              : 841 MiB (75%)
Writing library                          : x264 core 142 r2479 dd79a61
Encoding settings                        : cabac=1 / ref=1 / deblock=1:0:0 / analyse=0x1:0x111 / me=hex / subme=2 / psy=1 / psy_rd=1.00:0.00 / mixed_ref=0 / me_range=16 / chroma_me=1 / trellis=0 / 8x8dct=0 / cqm=0 / deadzone=21,11 / fast_pskip=1 / chroma_qp_offset=0 / threads=12 / lookahead_threads=2 / sliced_threads=0 / nr=0 / decimate=1 / interlaced=0 / bluray_compat=0 / constrained_intra=0 / bframes=3 / b_pyramid=2 / b_adapt=1 / b_bias=0 / direct=1 / weightb=1 / open_gop=0 / weightp=1 / keyint=240 / keyint_min=24 / scenecut=40 / intra_refresh=0 / rc_lookahead=10 / rc=abr / mbtree=1 / bitrate=1290 / ratetol=1.0 / qcomp=0.60 / qpmin=0 / qpmax=69 / qpstep=4 / vbv_maxrate=20000 / vbv_bufsize=25000 / nal_hrd=none / filler=0 / ip_ratio=1.40 / aq=1:1.00
Default                                  : Yes
Forced                                   : No
Color primaries                          : BT.709-5, BT.1361, IEC 61966-2-4, SMPTE RP177
Transfer characteristics                 : BT.709-5, BT.1361
Matrix coefficients                      : BT.709-5, BT.1361, IEC 61966-2-4 709, SMPTE RP177

Audio #1
ID                                       : 2
Format                                   : AC-3
Format/Info                              : Audio Coding 3
Mode extension                           : CM (complete main)
Codec ID                                 : A_AC3
Duration                                 : 1h 32mn
Bit rate mode                            : Constant
Bit rate                                 : 192 Kbps
Channel(s)                               : 2 channels
Channel positions                        : Front: L R
Sampling rate                            : 48.0 KHz
Bit depth                                : 16 bits
Compression mode                         : Lossy
Delay relative to video                  : 1mn 5s
Stream size                              : 128 MiB (11%)
Title                                    : Stereo
Language                                 : Italian
Default                                  : Yes
Forced                                   : No

Audio #2
ID                                       : 3
Format                                   : AC-3
Format/Info                              : Audio Coding 3
Mode extension                           : CM (complete main)
Codec ID                                 : A_AC3
Duration                                 : 1h 32mn
Bit rate mode                            : Constant
Bit rate                                 : 192 Kbps
Channel(s)                               : 2 channels
Channel positions                        : Front: L R
Sampling rate                            : 48.0 KHz
Bit depth                                : 16 bits
Compression mode                         : Lossy
Delay relative to video                  : 1mn 5s
Stream size                              : 128 MiB (11%)
Title                                    : Stereo
Language                                 : English
Default                                  : No
Forced                                   : No

Text #1
ID                                       : 4
Format                                   : VobSub
Codec ID                                 : S_VOBSUB
Codec ID/Info                            : The same subtitle format used on DVDs
Language                                 : Italian
Default                                  : No
Forced                                   : No

Text #2
ID                                       : 5
Format                                   : VobSub
Codec ID                                 : S_VOBSUB
Codec ID/Info                            : The same subtitle format used on DVDs
Language                                 : Italian
Default                                  : No
Forced                                   : No

Menu
00:00:00.000                             : :00:00:00.000
00:12:01.012                             : :00:12:00.929
00:24:51.823                             : :00:24:51.740
00:36:43.618                             : :00:36:43.535
00:45:44.283                             : :00:45:44.200
00:52:01.243                             : :00:52:01.160
01:07:37.261                             : :01:07:37.178
01:10:07.119                             : :01:10:07.036
01:14:29.089                             : :01:14:29.006
01:17:02.784                             : :01:17:02.701
01:22:07.506                             : :01:22:07.422
01:27:59.732                             : :01:27:59.608




[/spoiler]

[/center]

Info: Per scaricare devi usare un client come uTorrent o Transmission
AnnounceURL
udp://tracker.coppersurfer.tk:6969/announce
Hash 62ef00f7c4a43935c26f54bea19de7a9eba27d81
Peers seeds: 80 , leech: 5
Size 1.09 GB
Completato 1248x
Aggiunto 29.04.17 - 13:04:05
Uploader   robbyrs
Votazione (Voti: 0)


Condividi questo bittorrent:


html/blog:


bbcode/forum:




Aggiungi Commento


counter