* Dettagli Torrent   globale  | Commenti (0) 


- Detachment - Il distacco (2011).H264.Italian.English.Ac3.5.1.sub.ita.iCV-MIRCrew -


Download via torrent:
Categoria bittorrent BDRip
Descrizione
Detachment - Il distacco (2011).H264.Italian.English.Ac3.5.1.sub.ita.iCV-MIRCrew

[center]by www.icv-crew.org


NO FOUND ONLY ORIGINAL RELEASE



My release is always in double track audio italian and Original audio
for select it use VLC or dvd player home
not use wmp

Detachment - Il distacco (2011)

PRESENTI ANCHE i SOTTOTITOLI

ESTERNI IN SRT (ita)







Titolo originale Detachment
Lingua originale Inglese
Paese di produzione USA
Anno 2011
Durata 97'
Rapporto 16:9
Genere drammatico
Regia Tony Kaye
Sceneggiatura Carl Lund
Produttore Greg Shapiro
Carl Lund
Austin Stark
Benji Kohn
Produttore esecutivo Adrien Brody
Distribuzione (Italia) Officine UBU
Montaggio Michelle Botticelli
Barry Alexander Brown
Musiche The Newton Brothers
Scenografia Jade Healy
Costumi Wendy Schecter




   Adrien Brody: Henry Barthes
   Sami Gayle: Erica
   James Caan: Sign. Charles Seaboldt
   Christina Hendricks: Signorina Madison
   Lucy Liu: Dr. Doris Parker
   Marcia Gay Harden: Preside Carol Dearden
   Bryan Cranston: Richard Dearden
   William Petersen: Sign. Sarge Kepler
   Blythe Danner: Sign.ra Perkins
   Tim Blake Nelson: Sign. Wiatt
   Isiah Whitlock Jr.: Sign. Mathias




Henry Barthes è un insegnante supplente, tormentato dal suo passato di bambino che ha subito il suicidio della madre rimasta sola a crescerlo. Henry si prende cura del nonno con cui è cresciuto, il quale, in seguito a quell'evento, ha perso il senno..................



A substitute teacher who drifts from classroom to classroom finds a connection to the students and teachers during his latest assignment.











[spoiler]
General
Unique ID                                : 102553553173465664092184924044430734757 (0x4D27188CA40CD2C0415B3A025AA8F5A5)
Complete name                            : Detachment - Il distacco (2011).H264.ita.eng.sub.ita.iCV-MIRCrew.mkv
Format                                   : Matroska
Format version                           : Version 2
File size                                : 1.48 GiB
Duration                                 : 1h 38mn
Overall bit rate                         : 2 163 Kbps
Movie name                               : www.icv-crew.org
Encoded date                             : UTC 2017-04-23 17:31:27
Writing application                      : Lavf54.63.100
Writing library                          : Lavf54.63.100
COPYRIGHT                                : robbyrs

Video
ID                                       : 1
Format                                   : AVC
Format/Info                              : Advanced Video Codec
Format profile                           : [email protected]
Format settings, CABAC                   : Yes
Format settings, ReFrames                : 2 frames
Codec ID                                 : V_MPEG4/ISO/AVC
Duration                                 : 1h 38mn
Bit rate                                 : 1 224 Kbps
Nominal bit rate                         : 1 290 Kbps
Width                                    : 720 pixels
Height                                   : 404 pixels
Display aspect ratio                     : 16:9
Frame rate mode                          : Variable
Frame rate                               : 23.976 fps
Color space                              : YUV
Chroma subsampling                       : 4:2:0
Bit depth                                : 8 bits
Scan type                                : Progressive
Bits/(Pixel*Frame)                       : 0.175
Stream size                              : 858 MiB (57%)
Writing library                          : x264 core 130 r2273
Encoding settings                        : cabac=1 / ref=2 / deblock=1:0:0 / analyse=0x1:0x131 / me=hex / subme=7 / psy=1 / psy_rd=1.00:0.00 / mixed_ref=0 / me_range=16 / chroma_me=1 / trellis=1 / 8x8dct=0 / cqm=0 / deadzone=21,11 / fast_pskip=1 / chroma_qp_offset=-2 / threads=12 / lookahead_threads=2 / sliced_threads=0 / nr=0 / decimate=1 / interlaced=0 / bluray_compat=0 / constrained_intra=0 / bframes=3 / b_pyramid=0 / b_adapt=1 / b_bias=0 / direct=3 / weightb=1 / open_gop=0 / weightp=2 / keyint=230 / keyint_min=23 / scenecut=40 / intra_refresh=0 / rc_lookahead=40 / rc=abr / mbtree=1 / bitrate=1290 / ratetol=1.0 / qcomp=0.60 / qpmin=10 / qpmax=69 / qpstep=4 / vbv_maxrate=24000 / vbv_bufsize=24000 / nal_hrd=none / ip_ratio=1.40 / aq=1:1.00
Language                                 : Italian
Default                                  : Yes
Forced                                   : No
DURATION                                 : 01:38:02.001000000
NUMBER_OF_FRAMES                         : 141027
NUMBER_OF_BYTES                          : 8229043518
_STATISTICS_WRITING_APP                  : mkvmerge v10.0.0 ('To Drown In You') 32bit
_STATISTICS_WRITING_DATE_UTC             : 2017-04-11 13:09:17
_STATISTICS_TAGS                         : BPS DURATION NUMBER_OF_FRAMES NUMBER_OF_BYTES

Audio #1
ID                                       : 2
Format                                   : AC-3
Format/Info                              : Audio Coding 3
Mode extension                           : CM (complete main)
Codec ID                                 : A_AC3
Duration                                 : 1h 38mn
Bit rate mode                            : Constant
Bit rate                                 : 448 Kbps
Channel(s)                               : 6 channels
Channel positions                        : Front: L C R, Side: L R, LFE
Sampling rate                            : 48.0 KHz
Bit depth                                : 16 bits
Compression mode                         : Lossy
Delay relative to video                  : 1mn 5s
Stream size                              : 314 MiB (21%)
Title                                    : Ita. AC3 640 Kbps
Language                                 : Italian
Default                                  : No
Forced                                   : No
DURATION                                 : 01:38:02.016000000
NUMBER_OF_FRAMES                         : 183813
NUMBER_OF_BYTES                          : 470561280
_STATISTICS_WRITING_APP                  : mkvmerge v10.0.0 ('To Drown In You') 32bit
_STATISTICS_WRITING_DATE_UTC             : 2017-04-11 13:09:17
_STATISTICS_TAGS                         : BPS DURATION NUMBER_OF_FRAMES NUMBER_OF_BYTES

Audio #2
ID                                       : 3
Format                                   : AC-3
Format/Info                              : Audio Coding 3
Mode extension                           : CM (complete main)
Codec ID                                 : A_AC3
Duration                                 : 1h 38mn
Bit rate mode                            : Constant
Bit rate                                 : 448 Kbps
Channel(s)                               : 6 channels
Channel positions                        : Front: L C R, Side: L R, LFE
Sampling rate                            : 48.0 KHz
Bit depth                                : 16 bits
Compression mode                         : Lossy
Delay relative to video                  : 1mn 5s
Stream size                              : 314 MiB (21%)
Title                                    : Eng. DTS 1510 Kbps
Language                                 : English
Default                                  : No
Forced                                   : No
DURATION                                 : 01:38:02.006000000
NUMBER_OF_FRAMES                         : 551438
NUMBER_OF_BYTES                          : 1109493324
_STATISTICS_WRITING_APP                  : mkvmerge v10.0.0 ('To Drown In You') 32bit
_STATISTICS_WRITING_DATE_UTC             : 2017-04-11 13:09:17
_STATISTICS_TAGS                         : BPS DURATION NUMBER_OF_FRAMES NUMBER_OF_BYTES

Text
ID                                       : 4
Format                                   : ASS
Codec ID                                 : S_TEXT/ASS
Codec ID/Info                            : Advanced Sub Station Alpha
Compression mode                         : Lossless
Title                                    : Sub. Ita.
Language                                 : Italian
Default                                  : No
Forced                                   : No
DURATION                                 : 01:32:55.152000000
NUMBER_OF_FRAMES                         : 1099
NUMBER_OF_BYTES                          : 36958
_STATISTICS_WRITING_APP                  : mkvmerge v10.0.0 ('To Drown In You') 32bit
_STATISTICS_WRITING_DATE_UTC             : 2017-04-11 13:09:17
_STATISTICS_TAGS                         : BPS DURATION NUMBER_OF_FRAMES NUMBER_OF_BYTES

Menu
00:00:00.000                             : :00:00:00.000
00:05:02.010                             : :00:05:02.010
00:13:10.331                             : :00:13:10.331
00:16:43.794                             : :00:16:43.794
00:27:20.889                             : :00:27:20.889
00:32:54.472                             : :00:32:54.472
00:41:46.212                             : :00:41:46.212
01:01:05.036                             : :01:01:05.036
01:28:07.199                             : :01:28:07.199


[/spoiler]

[/center]

Info: Per scaricare devi usare un client come uTorrent o Transmission
AnnounceURL
udp://tracker.coppersurfer.tk:6969/announce
Hash eb390b52ccdb0523dcbbcd5f567d8c89d75e9279
Peers seeds: 31 , leech: 11
Size 1.48 GB
Completato 787x
Aggiunto 28.04.17 - 12:04:23
Uploader   robbyrs
Votazione (Voti: 0)


Condividi questo bittorrent:


html/blog:


bbcode/forum:




Aggiungi Commento


counter