* Dettagli Torrent   globale  | Commenti (0) 


- E solo la fine del mondo (2016).XviD.Italian.french.Ac3.5.1.sub.ita.eng.iCV-MIRCrew -


Download via torrent:
Categoria bittorrent BDRip
Descrizione
E' solo la fine del mondo (2016) - Juste la fin du monde (2016).XviD.Italian.French.Ac3.5.1.sub.ita.eng.iCV-MIRCrew


[center]by www.icv-crew.org


NO FOUND ONLY ORIGINAL RELEASE



My release is always in double track audio italian and Original audio
for select it use VLC or dvd player home
not use wmp

E' solo la fine del mondo - Juste la fin du monde (2016)

ENGLISH SUBTITLE INSIDE







GENERE: Drammatico
ANNO: 2016
REGIA: Xavier Dolan
SCENEGGIATURA: Xavier Dolan
FOTOGRAFIA: André Turpin
MONTAGGIO: Xavier Dolan
MUSICHE: Gabriel Yared
PRODUZIONE: Sons of Manual, MK2 Productions, Téléfilm Canada
DISTRIBUZIONE: Lucky Red
PAESE: Canada, Francia
DURATA: 95 Min



Léa Seydoux, Marion Cotillard, Vincent Cassel, Gaspard Ulliel, Nathalie Baye



Louis, giovane scrittore che da tempo ha lasciato la sua casa di origine per vivere a pieno la propria vita, torna a trovare la sua famiglia con una brutta notizia............



After 12 years of absence, Louis (Gaspard Ulliel), a writer, goes back to his hometown, planning on announcing his upcoming death to his family. As resentment soon rewrites the course of the afternoon, fits and feuds unfold, fuelled by loneliness and doubt, while all attempts of empathy are sabotaged by people's incapacity to listen and love











[spoiler]
General
Complete name                            : E Solo La Fine Del Mondo Juste la fin du monde (2016).Ita.Fre.sub.ita.eng.iCV-MIRCrew.avi
Format                                   : AVI
Format/Info                              : Audio Video Interleave
Format profile                           : OpenDML
File size                                : 1.45 GiB
Duration                                 : 1h 39mn
Overall bit rate                         : 2 092 Kbps
Movie name                               : www.icv-crew.org
Writing application                      : Lavf54.63.100
Copyright                                : robbyrs

Video
ID                                       : 0
Format                                   : MPEG-4 Visual
Format profile                           : [email protected]
Format settings, BVOP                    : No
Format settings, QPel                    : No
Format settings, GMC                     : No warppoints
Format settings, Matrix                  : Default (H.263)
Codec ID                                 : XVID
Codec ID/Hint                            : XviD
Duration                                 : 1h 39mn
Bit rate                                 : 1 177 Kbps
Width                                    : 720 pixels
Height                                   : 384 pixels
Display aspect ratio                     : 16:9
Frame rate                               : 24.000 fps
Color space                              : YUV
Chroma subsampling                       : 4:2:0
Bit depth                                : 8 bits
Scan type                                : Progressive
Compression mode                         : Lossy
Bits/(Pixel*Frame)                       : 0.177
Stream size                              : 836 MiB (56%)
Writing library                          : XviD 64

Audio #1
ID                                       : 1
Format                                   : AC-3
Format/Info                              : Audio Coding 3
Codec ID                                 : 00001000-0000-0020-8000-00AA00389B71
Duration                                 : 1h 39mn
Bit rate                                 : 448 Kbps
Channel(s)                               : 6 channels
Channel positions                        : Front: L C R, Back: L R, LFE
Sampling rate                            : 48.0 KHz
Bit depth                                : 16 bits
Compression mode                         : Lossy
Stream size                              : 318 MiB (21%)
Interleave, duration                     : 32 ms (0.77 video frame)
Title                                    : AC3 ITA

Audio #2
ID                                       : 2
Format                                   : AC-3
Format/Info                              : Audio Coding 3
Codec ID                                 : 00001000-0000-0020-8000-00AA00389B71
Duration                                 : 1h 39mn
Bit rate                                 : 448 Kbps
Channel(s)                               : 6 channels
Channel positions                        : Front: L C R, Back: L R, LFE
Sampling rate                            : 48.0 KHz
Bit depth                                : 16 bits
Compression mode                         : Lossy
Stream size                              : 318 MiB (21%)
Interleave, duration                     : 32 ms (0.77 video frame)
Title                                    : AC3 ENG

[/spoiler]

[/center]

Info: Per scaricare devi usare un client come uTorrent o Transmission
AnnounceURL
udp://tracker.coppersurfer.tk:6969/announce
Hash a3a858361b0db572681fc4da733558586954ded9
Peers seeds: 184 , leech: 73
Size 1.45 GB
Completato 1924x
Aggiunto 27.04.17 - 15:04:29
Uploader   robbyrs
Votazione (Voti: 0)


Condividi questo bittorrent:


html/blog:


bbcode/forum:




Aggiungi Commento


counter