* Dettagli Torrent   globale  | Commenti (1) 


- Dogville (2003) Extend 171m.H264.Italian.English.Ac3.5.1.sub.ita.eng.iCV-MIRCrew -


Download via torrent:
Categoria bittorrent BDRip
Descrizione
Dogville (2003) Extend 171m.H264.Italian.English.Ac3.5.1.sub.ita.eng.iCV-MIRCrew

[center]by www.icv-crew.org


NO FOUND ONLY ORIGINAL RELEASE



My release is always in double track audio italian and Original audio
for select it use VLC or dvd player home
not use wmp

Dogville (2003)

PRESENTI ANCHE i SOTTOTITOLI

ESTERNI IN SRT (ita/eng)







Riconoscimenti

   2003 - Festival di Cannes
       Nomination Palma d'Oro a Lars von Trier
   2004 - Premio César
       Nomination Miglior film dell'Unione europea a Lars von Trier
   2004 - David di Donatello
       Miglior film dell'Unione Europea a Lars von Trier
   2003 - European Film Awards

ecc............

Titolo originale Dogville
Lingua originale Inglese
Paese di produzione Danimarca, Svezia, Italia, Norvegia, Paesi Bassi, Finlandia, Germania, Stati Uniti d'America, Regno Unito, Giappone
Anno 2003
Durata 171 min (versione cinematografica italiana 138 min)
Genere drammatico
Regia Lars von Trier
Soggetto Lars von Trier
Sceneggiatura Lars von Trier
Produttore Peter Aalbæk Jensen, Vibeke Windeløv, Zentropa
Fotografia Anthony Dod Mantle
Montaggio Molly Marlene Stensgård
Musiche Antonio Vivaldi ("Cum dederit" da Nisi Dominus, RV 60
Scenografia Simone Grau




   Nicole Kidman: Grace Margaret Mulligan
   Paul Bettany: Tom Edison, Jr.
   Stellan Skarsgård: Chuck
   James Caan: il grande uomo
   Philip Baker Hall: Tom Edison, Sr.
   Lauren Bacall: Ma Ginger
   Chloë Sevigny: Liz Henson
   Shauna Shim: June
   Patricia Clarkson: Vera
   Jeremy Davies: Bill
   Ben Gazzara: Jack McCay
   Blair Brown: Mrs. Henson
   Željko Ivanek: Ben
   Harriet Andersson: Gloria
   Siobhan Fallon: Martha
   Cleo King: Olivia
   Miles Purinton: Giasone
   Jean-Marc Barr: uomo col grande cappello




Il film è ambientato agli inizi degli anni trenta. Grace, una giovane donna in fuga da alcuni gangster, arriva a Dogville dove, nonostante l'iniziale titubanza se accoglierla o meno, trova rifugio in cambio di piccoli lavoretti a servizio di ciascuno degli abitanti. Inizialmente rifiutati con pudore i suoi servigi, successivamente pare rintracciabile un equilibrio e Grace sembra trovarsi bene nel paesino, la donna sarà progressivamente vittima di ricatti, sfruttamenti e violenze di ogni genere, ed i piccoli lavoretti diventeranno sempre più uno stato di schiavitù, fino all'apposizione di una catena al collo dopo la tentata fuga dalla comunità................



A woman on the run from the mob is reluctantly accepted in a small Colorado town. In exchange, she agrees to work for them. As a search visits town, she finds out that their support has a price. Yet her dangerous secret is never far away...








[spoiler]
General
Unique ID                                : 328070797625524388900048300794409538609 (0xF6D023264361A427FF79376C27365431)
Complete name                            : Dogville (2003).H264.ita.eng.sub.ita.eng.iCV-MIRCrew.mkv
Format                                   : Matroska
Format version                           : Version 2
File size                                : 2.33 GiB
Duration                                 : 2h 57mn
Overall bit rate                         : 1 876 Kbps
Movie name                               : Dogville
Encoded date                             : UTC 2017-04-23T17:09:15Z
Writing application                      : HandBrake 0.10.5 2016021100
Writing library                          : Lavf55.12.0

Video
ID                                       : 1
Format                                   : AVC
Format/Info                              : Advanced Video Codec
Format profile                           : [email protected]
Format settings, CABAC                   : Yes
Format settings, ReFrames                : 4 frames
Codec ID                                 : V_MPEG4/ISO/AVC
Duration                                 : 2h 57mn
Bit rate                                 : 1 290 Kbps
Width                                    : 720 pixels
Height                                   : 308 pixels
Display aspect ratio                     : 2.35:1
Original display aspect ratio            : 2.35:1
Frame rate mode                          : Variable / Variable
Frame rate                               : 23.976 fps
Color space                              : YUV
Chroma subsampling                       : 4:2:0
Bit depth                                : 8 bits
Scan type                                : Progressive
Bits/(Pixel*Frame)                       : 0.243
Stream size                              : 1.57 GiB (67%)
Writing library                          : x264 core 142 r2479 dd79a61
Encoding settings                        : cabac=1 / ref=1 / deblock=1:0:0 / analyse=0x1:0x111 / me=hex / subme=2 / psy=1 / psy_rd=1.00:0.00 / mixed_ref=0 / me_range=16 / chroma_me=1 / trellis=0 / 8x8dct=0 / cqm=0 / deadzone=21,11 / fast_pskip=1 / chroma_qp_offset=0 / threads=12 / lookahead_threads=2 / sliced_threads=0 / nr=0 / decimate=1 / interlaced=0 / bluray_compat=0 / constrained_intra=0 / bframes=3 / b_pyramid=2 / b_adapt=1 / b_bias=0 / direct=1 / weightb=1 / open_gop=0 / weightp=1 / keyint=240 / keyint_min=24 / scenecut=40 / intra_refresh=0 / rc_lookahead=10 / rc=abr / mbtree=1 / bitrate=1290 / ratetol=1.0 / qcomp=0.60 / qpmin=0 / qpmax=69 / qpstep=4 / vbv_maxrate=20000 / vbv_bufsize=25000 / nal_hrd=none / filler=0 / ip_ratio=1.40 / aq=1:1.00
Default                                  : Yes
Forced                                   : No
Color primaries                          : BT.709-5, BT.1361, IEC 61966-2-4, SMPTE RP177
Transfer characteristics                 : BT.709-5, BT.1361
Matrix coefficients                      : BT.709-5, BT.1361, IEC 61966-2-4 709, SMPTE RP177

Audio #1
ID                                       : 2
Format                                   : AC-3
Format/Info                              : Audio Coding 3
Mode extension                           : CM (complete main)
Codec ID                                 : A_AC3
Duration                                 : 2h 57mn
Bit rate mode                            : Constant
Bit rate                                 : 384 Kbps
Channel(s)                               : 6 channels
Channel positions                        : Front: L C R, Side: L R, LFE
Sampling rate                            : 48.0 KHz
Bit depth                                : 16 bits
Compression mode                         : Lossy
Delay relative to video                  : 1mn 5s
Stream size                              : 489 MiB (20%)
Title                                    : Surround
Language                                 : Italian
Default                                  : Yes
Forced                                   : No

Audio #2
ID                                       : 3
Format                                   : AC-3
Format/Info                              : Audio Coding 3
Mode extension                           : CM (complete main)
Codec ID                                 : A_AC3
Duration                                 : 2h 57mn
Bit rate mode                            : Constant
Bit rate                                 : 192 Kbps
Channel(s)                               : 2 channels
Channel positions                        : Front: L R
Sampling rate                            : 48.0 KHz
Bit depth                                : 16 bits
Compression mode                         : Lossy
Delay relative to video                  : 1mn 5s
Stream size                              : 244 MiB (10%)
Title                                    : Stereo
Language                                 : English
Default                                  : No
Forced                                   : No

Text #1
ID                                       : 4
Format                                   : ASS
Codec ID                                 : S_TEXT/ASS
Codec ID/Info                            : Advanced Sub Station Alpha
Compression mode                         : Lossless
Language                                 : Italian
Default                                  : No
Forced                                   : No

Text #2
ID                                       : 5
Format                                   : ASS
Codec ID                                 : S_TEXT/ASS
Codec ID/Info                            : Advanced Sub Station Alpha
Compression mode                         : Lossless
Language                                 : English
Default                                  : No
Forced                                   : No


[/spoiler]

[/center]

Info: Per scaricare devi usare un client come uTorrent o Transmission
AnnounceURL
udp://tracker.coppersurfer.tk:6969/announce
Hash c3d09b573e2b967b157fbac18dfd11b197060f2a
Peers seeds: 41 , leech: 10
Size 2.33 GB
Completato 801x
Aggiunto 25.04.17 - 14:04:34
Uploader   robbyrs
Votazione (Voti: 2)


Condividi questo bittorrent:


html/blog:


bbcode/forum:




Aggiungi Commento
Ultimi commenti
 jackal98jackal98   
Grazie
26/04 05.38
Tutti commenti (1)


counter