* Dettagli Torrent   globale  | Commenti (0) 


- Proprio lui (2016).H264.Italian.English.Ac3.5.1.sub.ita.eng.iCV-MIRCrew -


Download via torrent:
Categoria bittorrent BDRip
Descrizione
Why Him?  - Proprio lui (2016).H264.Italian.English.Ac3.5.1.sub.ita.eng.iCV-MIRCrew

[center]by www.icv-mircrew


NO FOUND ONLY ORIGINAL RELEASE



My release is always in double track audio italian and Original audio
for select it use VLC or dvd player home
not use wmp

Proprio lui - Why Him? (2016)

PRESENTI ANCHE i SOTTOTITOLI

ESTERNI IN SRT (ita/eng)







Titolo originale Why Him?
Lingua originale inglese
Paese di produzione Stati Uniti d'America
Anno 2016
Durata 90 min
Genere commedia
Regia John Hamburg
Soggetto John Hamburg, Jonah Hill, Ian Helfer
Sceneggiatura John Hamburg, Ian Helfer
Produttore Stuart Cornfeld, Dan Levine, Shawn Levy, Scott Robertson, Ben Stiller
Produttore esecutivo Georgia Kacandes
Casa di produzione 20th Century Fox, 21 Laps Entertainment, Red Hour Films, TSG Entertainment
Distribuzione (Italia) 20th Century Fox
Fotografia Kris Kachikis
Montaggio William Kerr
Effetti speciali Jake Valdez, Scott M. Davids
Scenografia Matthew Holt
Costumi Leesa Evans




   James Franco: Laird Mayhew
   Bryan Cranston: Ned Flemming
   Zoey Deutch: Stephanie Fleming
   Megan Mullally: Barb Fleming
   Griffin Gluck: Scotty Fleming
   Keegan Michael Key: Gustav
   Cedric the Entertainer: Lou Dunne
   Kaley Cuoco: Justine (voce)
   Zack Pearlman: Kevin Dingle
   Jee Young Han: Marnie Dingle
   Jacob Kemp: Randy
   Grace Ly Ngo Hazelett e Sadie Kate Ngo Hazelett: Vanessa Dingle
   Casey Wilson: Missy Pederman
   Andrew Rannells: Blaine Pederman
   Adam DeVine: Tyson Modell
   Bob Stephenson: Jerry
   Mary Pat Gleason: Joyce
   Richard Blais: se stesso
   Paul Stanley: se stesso
   Gene Simmons: se stesso
   Macaulay Culkin: Kevin McCallister in TV




Papà Ned Flemming è il capo iperprotettivo di una famiglia tradizionale, ben educata e di saldi principi, che, durante le vacanze di Natale, decide di andare a trovare, insieme alla moglie e al figlio minore, l'amatissima figlia Stephanie a Stanford. Qui Ned ha modo di conoscere il nuovo fidanzato di lei, ovvero l'eccentrico e scurrile nonché miliardario Laird



A holiday gathering threatens to go off the rails when Ned Fleming realizes that his daughter's Silicon Valley millionaire boyfriend is about to pop the question.  








[spoiler]
General
Unique ID                                : 28147188462090413058174232313988462299 (0x152CF3891D3575FB0FD89A442E7536DB)
Complete name                            : Proprio lui - Why Him (2016).H264.ita.eng.sub.ita.eng.iCV-MIRCrew.mkv
Format                                   : Matroska
Format version                           : Version 2
File size                                : 1.70 GiB
Duration                                 : 1h 51mn
Overall bit rate                         : 2 192 Kbps
Movie name                               : www.icv-crew.org
Encoded date                             : UTC 2017-04-24 15:46:16
Writing application                      : Lavf54.63.100
Writing library                          : Lavf54.63.100
COPYRIGHT                                : robbyrs

Video
ID                                       : 1
Format                                   : AVC
Format/Info                              : Advanced Video Codec
Format profile                           : [email protected]
Format settings, CABAC                   : Yes
Format settings, ReFrames                : 2 frames
Codec ID                                 : V_MPEG4/ISO/AVC
Duration                                 : 1h 51mn
Bit rate                                 : 1 290 Kbps
Width                                    : 720 pixels
Height                                   : 384 pixels
Display aspect ratio                     : 1.854
Original display aspect ratio            : 1.853
Frame rate mode                          : Variable
Frame rate                               : 23.976 fps
Color space                              : YUV
Chroma subsampling                       : 4:2:0
Bit depth                                : 8 bits
Scan type                                : Progressive
Bits/(Pixel*Frame)                       : 0.195
Stream size                              : 996 MiB (57%)
Writing library                          : x264 core 130 r2273
Encoding settings                        : cabac=1 / ref=2 / deblock=1:0:0 / analyse=0x1:0x131 / me=hex / subme=7 / psy=1 / psy_rd=1.00:0.00 / mixed_ref=0 / me_range=16 / chroma_me=1 / trellis=1 / 8x8dct=0 / cqm=0 / deadzone=21,11 / fast_pskip=1 / chroma_qp_offset=-2 / threads=12 / lookahead_threads=2 / sliced_threads=0 / nr=0 / decimate=1 / interlaced=0 / bluray_compat=0 / constrained_intra=0 / bframes=3 / b_pyramid=0 / b_adapt=1 / b_bias=0 / direct=3 / weightb=1 / open_gop=0 / weightp=2 / keyint=230 / keyint_min=23 / scenecut=40 / intra_refresh=0 / rc_lookahead=40 / rc=abr / mbtree=1 / bitrate=1290 / ratetol=1.0 / qcomp=0.60 / qpmin=10 / qpmax=69 / qpstep=4 / vbv_maxrate=24000 / vbv_bufsize=24000 / nal_hrd=none / ip_ratio=1.40 / aq=1:1.00
Language                                 : Italian
Default                                  : Yes
Forced                                   : No
DURATION                                 : 01:51:12.666000000
NUMBER_OF_FRAMES                         : 159984
NUMBER_OF_BYTES                          : 8165816554
_STATISTICS_WRITING_APP                  : mkvmerge v10.0.0 ('To Drown In You') 32bit
_STATISTICS_WRITING_DATE_UTC             : 2017-04-07 05:27:20
_STATISTICS_TAGS                         : BPS DURATION NUMBER_OF_FRAMES NUMBER_OF_BYTES

Audio #1
ID                                       : 2
Format                                   : AC-3
Format/Info                              : Audio Coding 3
Mode extension                           : CM (complete main)
Codec ID                                 : A_AC3
Duration                                 : 1h 51mn
Bit rate mode                            : Constant
Bit rate                                 : 448 Kbps
Channel(s)                               : 6 channels
Channel positions                        : Front: L C R, Side: L R, LFE
Sampling rate                            : 48.0 KHz
Bit depth                                : 16 bits
Compression mode                         : Lossy
Delay relative to video                  : 1mn 5s
Stream size                              : 356 MiB (20%)
Language                                 : Italian
Default                                  : No
Forced                                   : No
DURATION                                 : 01:51:12.672000000
NUMBER_OF_FRAMES                         : 208521
NUMBER_OF_BYTES                          : 533813760
_STATISTICS_WRITING_APP                  : mkvmerge v10.0.0 ('To Drown In You') 32bit
_STATISTICS_WRITING_DATE_UTC             : 2017-04-07 05:27:20
_STATISTICS_TAGS                         : BPS DURATION NUMBER_OF_FRAMES NUMBER_OF_BYTES

Audio #2
ID                                       : 3
Format                                   : AC-3
Format/Info                              : Audio Coding 3
Mode extension                           : CM (complete main)
Codec ID                                 : A_AC3
Duration                                 : 1h 51mn
Bit rate mode                            : Constant
Bit rate                                 : 448 Kbps
Channel(s)                               : 6 channels
Channel positions                        : Front: L C R, Side: L R, LFE
Sampling rate                            : 48.0 KHz
Bit depth                                : 16 bits
Compression mode                         : Lossy
Delay relative to video                  : 1mn 5s
Stream size                              : 356 MiB (20%)
Language                                 : English
Default                                  : No
Forced                                   : No
DURATION                                 : 01:51:12.672000000
NUMBER_OF_FRAMES                         : 625563
NUMBER_OF_BYTES                          : 1258632876
_STATISTICS_WRITING_APP                  : mkvmerge v10.0.0 ('To Drown In You') 32bit
_STATISTICS_WRITING_DATE_UTC             : 2017-04-07 05:27:20
_STATISTICS_TAGS                         : BPS DURATION NUMBER_OF_FRAMES NUMBER_OF_BYTES

Text #1
ID                                       : 4
Format                                   : ASS
Codec ID                                 : S_TEXT/ASS
Codec ID/Info                            : Advanced Sub Station Alpha
Compression mode                         : Lossless
Title                                    : Sub. Ita. Forced
Language                                 : Italian
Default                                  : Yes
Forced                                   : Yes
DURATION                                 : 01:44:13.288000000
NUMBER_OF_FRAMES                         : 19
NUMBER_OF_BYTES                          : 414
_STATISTICS_WRITING_APP                  : mkvmerge v10.0.0 ('To Drown In You') 32bit
_STATISTICS_WRITING_DATE_UTC             : 2017-04-07 05:27:20
_STATISTICS_TAGS                         : BPS DURATION NUMBER_OF_FRAMES NUMBER_OF_BYTES

Text #2
ID                                       : 5
Format                                   : ASS
Codec ID                                 : S_TEXT/ASS
Codec ID/Info                            : Advanced Sub Station Alpha
Compression mode                         : Lossless
Title                                    : Sub. Ita.
Language                                 : Italian
Default                                  : No
Forced                                   : No
DURATION                                 : 01:46:07.945000000
NUMBER_OF_FRAMES                         : 2428
NUMBER_OF_BYTES                          : 71100
_STATISTICS_WRITING_APP                  : mkvmerge v10.0.0 ('To Drown In You') 32bit
_STATISTICS_WRITING_DATE_UTC             : 2017-04-07 05:27:20
_STATISTICS_TAGS                         : BPS DURATION NUMBER_OF_FRAMES NUMBER_OF_BYTES

Text #3
ID                                       : 6
Format                                   : ASS
Codec ID                                 : S_TEXT/ASS
Codec ID/Info                            : Advanced Sub Station Alpha
Compression mode                         : Lossless
Title                                    : Sub. Eng.
Language                                 : English
Default                                  : No
Forced                                   : No
DURATION                                 : 01:46:07.945000000
NUMBER_OF_FRAMES                         : 2406
NUMBER_OF_BYTES                          : 75770
_STATISTICS_WRITING_APP                  : mkvmerge v10.0.0 ('To Drown In You') 32bit
_STATISTICS_WRITING_DATE_UTC             : 2017-04-07 05:27:20
_STATISTICS_TAGS                         : BPS DURATION NUMBER_OF_FRAMES NUMBER_OF_BYTES

Menu
00:00:00.000                             : :00:00:00.000
00:05:00.550                             : :00:05:00.550
00:09:34.365                             : :00:09:34.365
00:12:33.711                             : :00:12:33.711
00:18:06.961                             : :00:18:06.961
00:21:08.642                             : :00:21:08.642
00:25:57.264                             : :00:25:57.264
00:30:19.818                             : :00:30:19.818
00:35:45.101                             : :00:35:45.101
00:42:06.482                             : :00:42:06.482
00:45:49.705                             : :00:45:49.705
00:49:13.284                             : :00:49:13.284
00:55:03.634                             : :00:55:03.634
00:57:58.892                             : :00:57:58.892
01:03:01.069                             : :01:03:01.069
01:08:44.871                             : :01:08:44.871
01:12:01.108                             : :01:12:01.108
01:19:14.625                             : :01:19:14.625
01:23:03.812                             : :01:23:03.812
01:26:36.358                             : :01:26:36.358
01:31:44.916                             : :01:31:44.916
01:35:31.684                             : :01:35:31.684
01:40:05.416                             : :01:40:05.416
01:45:13.807                             : :01:45:13.807


[/spoiler]

[/center]

Info: Per scaricare devi usare un client come uTorrent o Transmission
AnnounceURL
udp://tracker.coppersurfer.tk:6969/announce
Hash 21fdae84a52183a34672f17d3262b07f14ab6e1a
Peers seeds: 267 , leech: 96
Size 1.70 GB
Completato 2556x
Aggiunto 25.04.17 - 12:04:04
Uploader   robbyrs
Votazione (Voti: 1)


Condividi questo bittorrent:


html/blog:


bbcode/forum:




Aggiungi Commento


counter