* Dettagli Torrent   globale  | Commenti (0) 


- La ragazza del mondo (2016).H264.Italian.Ac3.5.1.sub.ita.iCV-MIRCrew -


Download via torrent:
Categoria bittorrent BDRip
Descrizione
La ragazza del mondo (2016).H264.Italian.Ac3.5.1.sub.ita.iCV-MIRCrew

[center]by www.icv-crew.org


NO FOUND ONLY ORIGINAL RELEASE



My release is always in double track audio italian and Original audio
for select it use VLC or dvd player home
not use wmp

La ragazza del mondo (2016)



[URL=La ragazza del mondo (2016)][/URL]



Titolo originale:     La ragazza del mondo
Regia:     Marco Danieli  
Nazione:     Italia, Francia
Anno:     2016
Genere:     Drammatico
Durata:     104'
Produzione:     CSC Production, Rai Cinema, Barbary Films
Distribuzione:     Bolero Film




Sara Serraiocco, Michele Riondino, Marco Leonardi, Stefania Montorsi, Lucia Mascino, Pippo Delbono, Martina Cerroni, Giorgio Careccia, Maria Chiara Giannetta, Alessandra Vanzi, Andrea Mautone



Quello di Giulia è un mondo antico e sospeso, fatto di rigore e testi sacri, che esclude con ferocia chi non vi appartiene. Quello di Libero è il mondo di tutti gli altri, di chi sbaglia, di chi si arrangia cercando un'altra possibilità e di chi ama senza condizioni. Quando Giulia incontra Libero scopre di poter avere un altro destino, tutto da scegliere. ........



When Giulia meets Libero, she discovers there may be another destiny awaiting her, as they embark on an intense period together. A choice that leads to Giulia being completely cut off from the Jehovah's Witness world she belongs to.







[spoiler]
General
Unique ID                                : 237825635358064130777033277548762983757 (0xB2EB8D1FE4A87C27895C592EA4C76D4D)
Complete name                            : \\NASD164A0\Download\@DownloadStationTempFiles\admin\La ragazza del mondo (2016).H264.ita.sub.ita.iCV-MIRCrew.mkv.9df834c2df3af6c65964b2bf64430e21b7a36fe5\La ragazza del mondo (2016).H264.ita.sub.ita.iCV-MIRCrew.mkv
Format                                   : Matroska
Format version                           : Version 2
File size                                : 1.21 GiB
Duration                                 : 1h 39mn
Overall bit rate                         : 1 745 Kbps
Movie name                               : La ragazza del mondo (2016).iCV-MIRCrew.Title1
Encoded date                             : UTC 2017-04-16 20:32:40
Writing application                      : DVDFab 9.1.5.7
Writing library                          : libebml v0.7.8 + libmatroska v0.8.1

Video
ID                                       : 1
Format                                   : AVC
Format/Info                              : Advanced Video Codec
Format profile                           : [email protected]
Format settings, CABAC                   : Yes
Format settings, ReFrames                : 2 frames
Codec ID                                 : V_MPEG4/ISO/AVC
Duration                                 : 1h 39mn
Bit rate                                 : 1 262 Kbps
Width                                    : 720 pixels
Height                                   : 300 pixels
Display aspect ratio                     : 2.40:1
Frame rate                               : 25.000 fps
Color space                              : YUV
Chroma subsampling                       : 4:2:0
Bit depth                                : 8 bits
Scan type                                : Progressive
Bits/(Pixel*Frame)                       : 0.234
Stream size                              : 898 MiB (72%)
Writing library                          : x264 core
Default                                  : Yes
Forced                                   : No
Color primaries                          : BT.601-6 525, BT.1358 525, BT.1700 NTSC, SMPTE 170M
Transfer characteristics                 : BT.709-5, BT.1361
Matrix coefficients                      : BT.601-6 525, BT.1358 525, BT.1700 NTSC, SMPTE 170M

Audio
ID                                       : 2
Format                                   : AC-3
Format/Info                              : Audio Coding 3
Mode extension                           : CM (complete main)
Codec ID                                 : A_AC3
Duration                                 : 1h 39mn
Bit rate mode                            : Constant
Bit rate                                 : 448 Kbps
Channel(s)                               : 6 channels
Channel positions                        : Front: L C R, Side: L R, LFE
Sampling rate                            : 48.0 KHz
Bit depth                                : 16 bits
Compression mode                         : Lossy
Stream size                              : 319 MiB (26%)
Language                                 : Italian
Default                                  : Yes
Forced                                   : No

Text
ID                                       : 3
Format                                   : VobSub
Codec ID                                 : S_VOBSUB
Codec ID/Info                            : The same subtitle format used on DVDs
Language                                 : Italian
Default                                  : Yes
Forced                                   : No

Menu
00:00:00.000                             : en01)00:00:00:000
00:06:58.000                             : en02)00:06:58:000
00:14:51.040                             : en03)00:14:51:040
00:22:33.280                             : en04)00:22:33:280
00:29:56.160                             : en05)00:29:56:160
00:39:07.080                             : en06)00:39:07:080
00:48:25.880                             : en07)00:48:25:880
00:57:53.720                             : en000:57:53:720
01:09:19.280                             : en09)01:09:19:280
01:18:07.880                             : en10)01:18:07:880
01:25:43.480                             : en11)01:25:43:480
01:36:16.240                             : en12)01:36:16:240


[/spoiler]

[/center]

Info: Per scaricare devi usare un client come uTorrent o Transmission
AnnounceURL
udp://tracker.coppersurfer.tk:6969/announce
Hash 9df834c2df3af6c65964b2bf64430e21b7a36fe5
Peers seeds: 218 , leech: 29
Size 1.21 GB
Completato 2443x
Aggiunto 24.04.17 - 14:04:11
Uploader   robbyrs
Votazione (Voti: 1)


Condividi questo bittorrent:


html/blog:


bbcode/forum:




Aggiungi Commento


counter