Loading...
 * Dettagli Torrent   globale  | Commenti (0) 


- Piacere, sono un po incinta (2010).H264.Italian.English.Ac3.5.1.sub.ita.eng.iCV-MIRCrew -


Download via torrent:
Categoria bittorrent BDRip
Descrizione
The Back-Up Plan - Piacere, sono un po' incinta (2010).H264.Italian.English.Ac3.5.1.sub.ita.eng.iCV-MIRCrew


[center]by www.icv-crew.org


NO FOUND ONLY ORIGINAL RELEASE



My release is always in double track audio italian and Original audio
for select it use VLC or dvd player home
not use wmp

Piacere, sono un po' incinta - The Back-Up Plan (2010)







Titolo originale The Back-Up Plan
Lingua originale inglese
Paese di produzione USA
Anno 2010
Durata 113 min
Genere commedia, sentimentale
Regia Alan Poul
Sceneggiatura Kate Angelo
Produttore Todd Black, Jason Blumenthal, Christine Coggins, Lance Johnson, Steve Tisch
Produttore esecutivo David J. Bloomfield, Rodney Liber
Casa di produzione CBS Films, Escape Artists
Distribuzione (Italia) Sony Pictures
Fotografia Xavier Pérez Grobet
Montaggio Priscilla Nedd-Friendly
Effetti speciali Mark R. Byers
Musiche Stephen Trask
Scenografia Alec Hammond, Priscilla Elliott
Costumi Karen Patch
Trucco Stephen Bettles, Clare M. Corsick, Danielle Friedman, Jane Galli




   Jennifer Lopez: Zoe
   Alex O'Loughlin: Stan
   Eric Christian Olsen: Clive
   Michaela Watkins: Mona
   Linda Lavin: Nana
   Danneel Harris: Olivia
   Noureen DeWulf: Daphne
   Anthony Anderson: papà al parco
   Melissa McCarthy: Carol
   Tom Bosley: Arthur
   Adam Rose: Louie
   Carlease Burke: Tabitha
   Robert Klein: dottor Scott Harris




Zoe un avvenente ragazza newyorkese che gestisce un negozio di animali è fortemente motivata a diventare madre. Dopo tante relazioni finite male, capisce che aspettare l'uomo giusto richiede troppo tempo. Decide quindi di prendere un appuntamento per sottoporsi all'inseminazione artificiale, utilizzando lo sperma di un uomo con i capelli rossi e le lentiggini, nonostante i suoi amici pensino sia una pessima idea................



Zoe is a woman who has a hard time letting anyone into her life. She has a habit of pushing people away whenever they get close. She wants to have a baby but because she has no man in her life, she decides to be artificially inseminated. Shortly after having the procedure she meets a guy named Stan, and she feels a spark. When she tells him about her pregnancy, she thinks he'll bail but he sticks with her...








[spoiler]
General
Unique ID                                : 175534771765133231568162198926042543136 (0x840EC46F3D0ED03D807F43F84EF73420)
Complete name                            : Piacere, sono un po' incinta (2010).H264.ita.eng.sub.ita.eng.iCV-MIRCrew.mkv
Format                                   : Matroska
Format version                           : Version 2
File size                                : 1.49 GiB
Duration                                 : 1h 44mn
Overall bit rate                         : 2 052 Kbps
Movie name                               : www.icv-crew.org
Encoded date                             : UTC 2017-04-11T16:35:56Z
Writing application                      : mkvmerge v5.4.0 ('Piper') built on Mar 10 2012 13:34:39
Writing library                          : Lavf55.12.0

Video
ID                                       : 1
Format                                   : AVC
Format/Info                              : Advanced Video Codec
Format profile                           : [email protected]
Format settings, CABAC                   : Yes
Format settings, ReFrames                : 4 frames
Muxing mode                              : Header stripping
Codec ID                                 : V_MPEG4/ISO/AVC
Duration                                 : 1h 44mn
Bit rate                                 : 1 290 Kbps
Width                                    : 720 pixels
Height                                   : 306 pixels
Display aspect ratio                     : 2.35:1
Frame rate mode                          : Variable / Variable
Frame rate                               : 23.976 fps
Color space                              : YUV
Chroma subsampling                       : 4:2:0
Bit depth                                : 8 bits
Scan type                                : Progressive
Bits/(Pixel*Frame)                       : 0.244
Stream size                              : 927 MiB (61%)
Title                                    : Piacere, sono un po' incinta (2010).H264.ita.eng.sub.ita.eng.iCV-MIRCrew
Writing library                          : x264 core 142 r2479 dd79a61
Encoding settings                        : cabac=1 / ref=1 / deblock=1:0:0 / analyse=0x1:0x111 / me=hex / subme=2 / psy=1 / psy_rd=1.00:0.00 / mixed_ref=0 / me_range=16 / chroma_me=1 / trellis=0 / 8x8dct=0 / cqm=0 / deadzone=21,11 / fast_pskip=1 / chroma_qp_offset=0 / threads=12 / lookahead_threads=2 / sliced_threads=0 / nr=0 / decimate=1 / interlaced=0 / bluray_compat=0 / constrained_intra=0 / bframes=3 / b_pyramid=2 / b_adapt=1 / b_bias=0 / direct=1 / weightb=1 / open_gop=0 / weightp=1 / keyint=240 / keyint_min=24 / scenecut=40 / intra_refresh=0 / rc_lookahead=10 / rc=abr / mbtree=1 / bitrate=1290 / ratetol=1.0 / qcomp=0.60 / qpmin=0 / qpmax=69 / qpstep=4 / vbv_maxrate=20000 / vbv_bufsize=25000 / nal_hrd=none / filler=0 / ip_ratio=1.40 / aq=1:1.00
Language                                 : Italian
Default                                  : Yes
Forced                                   : No
Color primaries                          : BT.709-5, BT.1361, IEC 61966-2-4, SMPTE RP177
Transfer characteristics                 : BT.709-5, BT.1361
Matrix coefficients                      : BT.709-5, BT.1361, IEC 61966-2-4 709, SMPTE RP177

Audio #1
ID                                       : 2
Format                                   : AC-3
Format/Info                              : Audio Coding 3
Mode extension                           : CM (complete main)
Muxing mode                              : Header stripping
Codec ID                                 : A_AC3
Duration                                 : 1h 44mn
Bit rate mode                            : Constant
Bit rate                                 : 384 Kbps
Channel(s)                               : 6 channels
Channel positions                        : Front: L C R, Side: L R, LFE
Sampling rate                            : 48.0 KHz
Bit depth                                : 16 bits
Compression mode                         : Lossy
Delay relative to video                  : -5ms
Stream size                              : 286 MiB (19%)
Title                                    : Surround
Language                                 : Italian
Default                                  : Yes
Forced                                   : No

Audio #2
ID                                       : 3
Format                                   : AC-3
Format/Info                              : Audio Coding 3
Mode extension                           : CM (complete main)
Muxing mode                              : Header stripping
Codec ID                                 : A_AC3
Duration                                 : 1h 44mn
Bit rate mode                            : Constant
Bit rate                                 : 384 Kbps
Channel(s)                               : 6 channels
Channel positions                        : Front: L C R, Side: L R, LFE
Sampling rate                            : 48.0 KHz
Bit depth                                : 16 bits
Compression mode                         : Lossy
Delay relative to video                  : -5ms
Stream size                              : 286 MiB (19%)
Title                                    : Surround
Language                                 : English
Default                                  : No
Forced                                   : No

Text #1
ID                                       : 4
Format                                   : ASS
Codec ID                                 : S_TEXT/ASS
Codec ID/Info                            : Advanced Sub Station Alpha
Compression mode                         : Lossless
Language                                 : Italian
Default                                  : No
Forced                                   : No

Text #2
ID                                       : 5
Format                                   : ASS
Codec ID                                 : S_TEXT/ASS
Codec ID/Info                            : Advanced Sub Station Alpha
Compression mode                         : Lossless
Language                                 : English
Default                                  : No
Forced                                   : No

Menu
00:00:00.000                             : 01)00:00:00:000
00:06:43.072                             : 02)00:06:42:944
00:14:02.385                             : 03)00:14:02:258
00:21:47.266                             : 04)00:21:47:139
00:26:19.413                             : 05)00:26:19:286
00:31:49.868                             : 06)00:31:49:741
00:39:25.323                             : 07)00:39:25:196
00:45:41.032                             : 000:45:40:863
00:50:55.138                             : 09)00:50:55:010
00:57:05.174                             : 10)00:57:05:046
01:03:26.763                             : 11)01:03:26:636
01:09:56.736                             : 12)01:09:56:609
01:14:20.834                             : 13)01:14:20:706
01:22:11.762                             : 14)01:22:11:635
01:27:08.309                             : 15)01:27:08:181
01:31:53.051                             : 16)01:31:52:924



[/spoiler]

[/center]

Info: Per scaricare devi usare un client come uTorrent o Transmission
AnnounceURL
udp://tracker.coppersurfer.tk:6969/announce
Hash 48346282a44da66b418b5846c361e4f6fd81315b
Peers seeds: 79 , leech: 13
Size 1.49 GB
Completato 940x
Aggiunto 15.04.17 - 13:04:41
Uploader   robbyrs
Votazione (Voti: 1)


Condividi questo bittorrent:


html/blog:


bbcode/forum:




Aggiungi Commento


counter