* Dettagli Torrent   globale  | Commenti (0) 


- Planet Earth S02e05 - Praterie (2016), [BDmux 1080p - H264 - Ita Ac3 Eng Dts] Documentario BBC -


Download via torrent:
Categoria bittorrent BDRip
Descrizione
[align=center]

[SIZE=13]Planet Earth II[/SIZE]







Dopo il grande successo di pubblico e critica della prima serie del documentario di BBC, “Planet Earth II” è tornato quindi ad esplorare il Pianeta concentrando l’attenzione su isole, montagne, giungle, deserti, praterie e, per la prima volta, città.
“Planet Earth II” è stato interamente girato in full UHD+HDR visitando 40 diversi paesi, nel corso di 117 viaggi, per un totale di 2.089 giorni di riprese.

Solo per l’Isola di Zavodovski, in Antartide, si è reso necessario un anno di programmazione.
Un’altra troupe ha trascorso cinque mesi, nell’arco di due anni, accampata sul Delta dell’Okavango, in Botswana.

“Planet Earth II” è riuscito a catturare e, cosa non meno importante, raccontare il mondo naturale con una narrazione raffinata ed una qualità pari a quella cinematografica.
Eccezionali, infatti, le risorse tecnologiche impiegate dal Natural History Unit di BBC: tra queste, stabilizzatori di immagine, droni e telecamere a sensore.

La tecnica cinematografica d’avanguardia adottata, ha reso visibile l’invisibile e impensabili prima d’ora le sequenze dedicate agli animali, quest’ultime proposte con un dettaglio senza precedenti. Non a caso, la voce narrante della serie originale – Sir David Attenborough – ha affermato: “Dieci anni fa queste riprese non si potevano fare!”.


[/align]

[CITA=Sciencefun] T R A I L E R
[youtube=c8aFcHFu8QM]
[/CITA]


[CITA=Sciencefun] P R O M O
[youtube=msnekMHJQG8]
[/CITA]

[align=center]




Genre Nature documentary
Presented by David Attenborough
Composer(s)
Hans Zimmer
Jasha Klebe
Jacob Shea
Country of origin United Kingdom
Original language(s) English




[spoiler]
General
Unique ID                                : 200470668364395259697614249242541765576 (0x96D13F0EA8BF5668801D401DC76533C
Complete name                            : K:\p2p up\05\Plànèt.3arth.II.-.s02e05 -Praterie (2016) BDMux 1O8Op ITA AC3 ENG DTS Sub Ita Eng - Sciencefun.mkv
Format                                   : Matroska
Format version                           : Version 4 / Version 2
File size                                : 5.66 GiB
Duration                                 : 48 min 22 s
Overall bit rate                         : 16.7 Mb/s
Movie name                               : Planet Earth II Episodio 5: Praterie (2016) BDMux 1080p ITA AC3 ENG DTS Sub Ita Eng - Sciencefun
Encoded date                             : UTC 2017-04-11 13:35:09
Writing application                      : mkvmerge v9.5.0 ('Quiet Fire') 64bit
Writing library                          : libebml v1.3.4 + libmatroska v1.4.5

Video
ID                                       : 1
Format                                   : AVC
Format/Info                              : Advanced Video Codec
Format profile                           : [email protected]
Format settings, CABAC                   : Yes
Format settings, ReFrames                : 4 frames
Codec ID                                 : V_MPEG4/ISO/AVC
Duration                                 : 48 min 22 s
Bit rate                                 : 15.0 Mb/s
Width                                    : 1 920 pixels
Height                                   : 1 080 pixels
Display aspect ratio                     : 16:9
Frame rate mode                          : Constant
Frame rate                               : 25.000 FPS
Color space                              : YUV
Chroma subsampling                       : 4:2:0
Bit depth                                : 8 bits
Scan type                                : Progressive
Bits/(Pixel*Frame)                       : 0.289
Stream size                              : 5.06 GiB (89%)
Title                                    : Planet Earth II Episode 5: Grasslands (2016) BDRip 1080p ENG DTS Sub Ita Eng - Sciencefun
Writing library                          : x264 core 148 r2705 3f5ed56
Encoding settings                        : cabac=1 / ref=4 / deblock=1:-3:-3 / analyse=0x3:0x133 / me=umh / subme=10 / psy=1 / psy_rd=0.90:0.00 / mixed_ref=1 / me_range=48 / chroma_me=1 / trellis=2 / 8x8dct=1 / cqm=0 / deadzone=21,11 / fast_pskip=1 / chroma_qp_offset=-2 / threads=24 / lookahead_threads=4 / sliced_threads=0 / nr=0 / decimate=1 / interlaced=0 / bluray_compat=0 / constrained_intra=0 / bframes=8 / b_pyramid=2 / b_adapt=2 / b_bias=0 / direct=3 / weightb=1 / open_gop=0 / weightp=2 / keyint=250 / keyint_min=25 / scenecut=40 / intra_refresh=0 / rc=crf / mbtree=0 / crf=18.0 / qcomp=0.60 / qpmin=0 / qpmax=69 / qpstep=4 / ip_ratio=1.40 / pb_ratio=1.30 / aq=3:0.75
Default                                  : Yes
Forced                                   : No

Audio #1
ID                                       : 2
Format                                   : AC-3
Format/Info                              : Audio Coding 3
Mode extension                           : CM (complete main)
Format settings, Endianness              : Big
Codec ID                                 : A_AC3
Duration                                 : 48 min 16 s
Bit rate mode                            : Constant
Bit rate                                 : 256 kb/s
Channel(s)                               : 2 channels
Channel positions                        : Front: L R
Sampling rate                            : 44.1 kHz
Frame rate                               : 28.711 FPS (1536 spf)
Compression mode                         : Lossy
Stream size                              : 88.4 MiB (2%)
Title                                    : Sciencefun Mux
Language                                 : Italian
Default                                  : Yes
Forced                                   : No

Audio #2
ID                                       : 3
Format                                   : DTS
Format/Info                              : Digital Theater Systems
Mode                                     : 16
Format settings, Endianness              : Big
Codec ID                                 : A_DTS
Duration                                 : 48 min 22 s
Bit rate mode                            : Constant
Bit rate                                 : 1 509 kb/s
Channel(s)                               : 6 channels
Channel positions                        : Front: L C R, Side: L R, LFE
Sampling rate                            : 48.0 kHz
Frame rate                               : 93.750 FPS (512 spf)
Bit depth                                : 24 bits
Compression mode                         : Lossy
Stream size                              : 522 MiB (9%)
Language                                 : English
Default                                  : No
Forced                                   : No

Text #1
ID                                       : 4
Format                                   : UTF-8
Codec ID                                 : S_TEXT/UTF8
Codec ID/Info                            : UTF-8 Plain Text
Duration                                 : 47 min 36 s
Bit rate                                 : 42 b/s
Count of elements                        : 285
Stream size                              : 14.8 KiB (0%)
Language                                 : English
Default                                  : No
Forced                                   : No

Text #2
ID                                       : 5
Format                                   : UTF-8
Codec ID                                 : S_TEXT/UTF8
Codec ID/Info                            : UTF-8 Plain Text
Duration                                 : 48 min 8 s
Bit rate                                 : 44 b/s
Count of elements                        : 354
Stream size                              : 15.6 KiB (0%)
Title                                    : SDH
Language                                 : English
Default                                  : No
Forced                                   : No

Text #3
ID                                       : 6
Format                                   : PGS
Muxing mode                              : zlib
Codec ID                                 : S_HDMV/PGS
Codec ID/Info                            : Picture based subtitle format used on BDs/HD-DVDs
Duration                                 : 48 min 8 s
Bit rate                                 : 7 470 b/s
Count of elements                        : 708
Stream size                              : 2.57 MiB (0%)
Language                                 : English
Default                                  : No
Forced                                   : No

Menu
00:00:00.000                             : en:00:00:00.000
00:12:34.280                             : en:00:12:34.280
00:21:06.720                             : en:00:21:06.720
00:30:14.000                             : en:00:30:14.000
00:41:57.000                             : en:00:41:57.000
00:48:17.360                             : en:00:48:17.360
[/spoiler]



clicca sopra l'immagine per vederla in rapporto 1:1




[SIZE=14]Anteprima - Sample Video[/SIZE]


Seed:
Singolo Webseed
Illimitato :giggle:  

[color=purple]fino a 100Mbit/s


Server: 1Gbps Upload <12h

[color=green]Seed in DHT

[IMG]http://s32.postimg.org/iqnkbi58h/cry.gif" alt="" onload="NcodeImageResizer.createOn(this);">

Mi Raccomando rimanete in Seed!!![/color][/color]



un :grazie: è sempre ben accetto[/align]
Info: Per scaricare devi usare un client come uTorrent o Transmission
AnnounceURL
http://tracker.tntvillage.scambioetico.org:2710/announce
Hash 86adb2b8ac32b18bc51dfb3cc8db494f76d51354
Peers seeds: 117 , leech: 100
Size 5.66 GB
Completato 1038x
Aggiunto 12.04.17 - 18:04:18
Uploader   Sciencefun
Votazione (Voti: 1)


Condividi questo bittorrent:


html/blog:


bbcode/forum:




Aggiungi Commento


counter