Loading...
 * Dettagli Torrent   globale  | Commenti (0) 


- 7 Minuti (2016).H264.Italian.Ac3.5.1.sub.ita.iCV-MIRCrew -


Download via torrent:
Categoria bittorrent BDRip
Descrizione
7 Minuti (2016).H264.Italian.Ac3.5.1.sub.ita.iCV-MIRCrew


[center]by www.icv-crew.org


NO FOUND ONLY ORIGINAL RELEASE



My release is always in double track audio italian and Original audio
for select it use VLC or dvd player home
not use wmp

7 Minuti (2016)







   DATA USCITA: 03 novembre 2016
   GENERE: Drammatico
   ANNO: 2016
   REGIA: Michele Placido
   SCENEGGIATURA: Michele Placido, Stefano Massini, Toni Trupia
   FOTOGRAFIA: Arnaldo Catinari
   MONTAGGIO: Consuelo Catucci
   MUSICHE: Paolo Buonvino
   PRODUZIONE: Goldenart Production, Manny Films, Ventura Film
   DISTRIBUZIONE: Koch Media
   PAESE: Italia
   DURATA: 88 Min



Cristiana Capotondi, Violante Placido, Ambra Angiolini, Ottavia Piccolo, Fiorella Mannoia, Maria Nazionale, Clémence Poésy, Sabine Timoteo, Anne Consigny



L'incertezza del futuro appesa a 7 minuti. Un caleidoscopio di vite diversissime e pulsanti, vite di donne, madri, figlie. Undici caratteri, per una riflessione sulla possibilità concreta di opporre resistenza e di reagire all'incertezza del futuro, tra caos, logica e giustizia.



The owners of an Italian textile factory sell the majority of the property to a multinational company. No layoffs are planned, but there's a special clause in the agreement that the new ...  








[spoiler]
General
Unique ID                                : 195200491152133144055763828092665702055 (0x92DA3F4265D15A5BA97CDE67CA49A6A7)
Complete name                            : 7 Minuti (2016).H264.ita.sub.ita.iCV-MIRCrew.mkv
Format                                   : Matroska
Format version                           : Version 2
File size                                : 1.10 GiB
Duration                                 : 1h 30mn
Overall bit rate                         : 1 729 Kbps
Movie name                               : VISIT www.icv-crew.org
Encoded date                             : UTC 2017-02-22 22:32:05
Writing application                      : mkvmerge v5.4.0 ('Piper') built on Mar 10 2012 13:34:39
Writing library                          : Lavf54.63.100
COPYRIGHT                                : robbyrs

Video
ID                                       : 1
Format                                   : AVC
Format/Info                              : Advanced Video Codec
Format profile                           : [email protected]
Format settings, CABAC                   : Yes
Format settings, ReFrames                : 2 frames
Muxing mode                              : Header stripping
Codec ID                                 : V_MPEG4/ISO/AVC
Duration                                 : 1h 30mn
Bit rate                                 : 1 280 Kbps
Width                                    : 720 pixels
Height                                   : 304 pixels
Display aspect ratio                     : 2.40:1
Frame rate mode                          : Variable
Frame rate                               : 24.000 fps
Color space                              : YUV
Chroma subsampling                       : 4:2:0
Bit depth                                : 8 bits
Scan type                                : Progressive
Bits/(Pixel*Frame)                       : 0.244
Stream size                              : 811 MiB (72%)
Writing library                          : x264 core 130 r2273
Encoding settings                        : cabac=1 / ref=2 / deblock=1:0:0 / analyse=0x1:0x131 / me=hex / subme=7 / psy=1 / psy_rd=1.00:0.00 / mixed_ref=0 / me_range=16 / chroma_me=1 / trellis=1 / 8x8dct=0 / cqm=0 / deadzone=21,11 / fast_pskip=1 / chroma_qp_offset=-2 / threads=12 / lookahead_threads=2 / sliced_threads=0 / nr=0 / decimate=1 / interlaced=0 / bluray_compat=0 / constrained_intra=0 / bframes=3 / b_pyramid=0 / b_adapt=1 / b_bias=0 / direct=3 / weightb=1 / open_gop=0 / weightp=2 / keyint=240 / keyint_min=24 / scenecut=40 / intra_refresh=0 / rc_lookahead=40 / rc=2pass / mbtree=1 / bitrate=1280 / ratetol=1.0 / qcomp=0.60 / qpmin=10 / qpmax=69 / qpstep=4 / cplxblur=20.0 / qblur=0.5 / vbv_maxrate=24000 / vbv_bufsize=24000 / nal_hrd=none / ip_ratio=1.40 / aq=1:1.00
Language                                 : Italian
Default                                  : Yes
Forced                                   : No
DURATION                                 : 01:30:55.292000000
NUMBER_OF_FRAMES                         : 130927
NUMBER_OF_BYTES                          : 6619266788
_STATISTICS_WRITING_APP                  : mkvmerge v8.7.0 ('All of the above') 64bit
_STATISTICS_WRITING_DATE_UTC             : 2017-02-19 14:15:28
_STATISTICS_TAGS                         : BPS DURATION NUMBER_OF_FRAMES NUMBER_OF_BYTES

Audio
ID                                       : 2
Format                                   : AC-3
Format/Info                              : Audio Coding 3
Mode extension                           : CM (complete main)
Muxing mode                              : Header stripping
Codec ID                                 : A_AC3
Duration                                 : 1h 30mn
Bit rate mode                            : Constant
Bit rate                                 : 448 Kbps
Channel(s)                               : 6 channels
Channel positions                        : Front: L C R, Side: L R, LFE
Sampling rate                            : 48.0 KHz
Bit depth                                : 16 bits
Compression mode                         : Lossy
Delay relative to video                  : -5ms
Stream size                              : 291 MiB (26%)
Language                                 : Italian
Default                                  : Yes
Forced                                   : No
DURATION                                 : 01:30:55.339000000
NUMBER_OF_FRAMES                         : 511438
NUMBER_OF_BYTES                          : 1029013256
_STATISTICS_WRITING_APP                  : mkvmerge v8.7.0 ('All of the above') 64bit
_STATISTICS_WRITING_DATE_UTC             : 2017-02-19 14:15:28
_STATISTICS_TAGS                         : BPS DURATION NUMBER_OF_FRAMES NUMBER_OF_BYTES

Menu
00:00:00.000                             : :00:00:00.000
00:02:12.167                             : :00:02:12.167
00:08:54.500                             : :00:08:54.500
00:15:14.708                             : :00:15:14.708
00:20:35.125                             : :00:20:35.125
00:26:43.292                             : :00:26:43.292
00:32:33.750                             : :00:32:33.750
00:38:07.375                             : :00:38:07.375
00:45:49.042                             : :00:45:49.042
00:50:12.583                             : :00:50:12.583
00:58:11.333                             : :00:58:11.333
01:03:06.625                             : :01:03:06.625
01:10:02.333                             : :01:10:02.333
01:16:34.917                             : :01:16:34.917
01:22:21.833                             : :01:22:21.833
01:26:55.417                             : :01:26:55.417



[/spoiler]

[/center]

Info: Per scaricare devi usare un client come uTorrent o Transmission
AnnounceURL
udp://tracker.coppersurfer.tk:6969/announce
Hash 350046165e8fdd170ca9f7d7c71c407218216e41
Peers seeds: 362 , leech: 72
Size 1.10 GB
Completato 3709x
Aggiunto 04.03.17 - 13:03:57
Uploader   robbyrs
Votazione (Voti: 1)


Condividi questo bittorrent:


html/blog:


bbcode/forum:




Aggiungi Commento


counter