* Dettagli Torrent   globale  | Commenti (0) 


- Planet Earth II Episode 1: Islands (2016) BDRip 1080p ENG DTS Sub Ita Eng - Sciencefun -


Download via torrent:
Categoria bittorrent BDRip
Descrizione
[align=center]

[SIZE=13]Planet Earth II[/SIZE]







Planet Earth II is a 2016 British nature documentary series produced by the BBC as a sequel to Planet Earth, which was broadcast in 2006.[1] The series is presented and narrated by Sir David Attenborough with the main theme music composed by Hans Zimmer.

Episode 1 of 6
Remote islands offer sanctuary for some of the planet's strangest and rarest creatures. The rare pygmy three-toed sloth enjoys a peaceful existence on an idyllic Caribbean island, while nesting albatross thrive in predator-free isolation.
But island life always comes at a cost. On the Galapagos Islands, young marine iguana must escape an onslaught of deadly racer snakes the moment they hatch from the sand. On the sub-Antarctic island of Zavodovski, life gets more extreme still. Every day, one and a half million penguins risk being battered against the rocks by fierce waves as they try to get on and off the island.


[CITA=Sciencefun]
[youtube= c8aFcHFu8QM]
[/CITA]




[/align]
Genre Nature documentary
Presented by David Attenborough
Composer(s)
Hans Zimmer
Jasha Klebe
Jacob Shea
Country of origin United Kingdom
Original language(s) English
[align=center]



[spoiler]
General
Unique ID                                : 200320090693288193488441359464952694591 (0x96B43F0140902FA8B97BB44BE403073F)
Complete name                            : K:\UPLOADING\Planet Earth II Miei\Planet Earth II Episode 1 Islands (2016) BDRip 1080p ENG DTS Sub Ita Eng - Sciencefun.mkv
Format                                   : Matroska
Format version                           : Version 4 / Version 2
File size                                : 6.47 GiB
Duration                                 : 1 h 27 min
Overall bit rate                         : 10.5 Mb/s
Movie name                               : Planet Earth II Episode 1: Islands (2016) BDRip 1080p ENG DTS Sub Ita Eng - Sciencefun
Encoded date                             : UTC 2017-02-03 15:13:04
Writing application                      : mkvmerge v9.5.0 ('Quiet Fire') 64bit
Writing library                          : libebml v1.3.4 + libmatroska v1.4.5

Video
ID                                       : 1
Format                                   : AVC
Format/Info                              : Advanced Video Codec
Format profile                           : [email protected]
Format settings, CABAC                   : Yes
Format settings, ReFrames                : 4 frames
Codec ID                                 : V_MPEG4/ISO/AVC
Duration                                 : 58 min 35 s
Bit rate                                 : 14.3 Mb/s
Width                                    : 1 920 pixels
Height                                   : 1 080 pixels
Display aspect ratio                     : 16:9
Frame rate mode                          : Constant
Frame rate                               : 25.000 FPS
Color space                              : YUV
Chroma subsampling                       : 4:2:0
Bit depth                                : 8 bits
Scan type                                : Progressive
Bits/(Pixel*Frame)                       : 0.276
Stream size                              : 5.86 GiB (90%)
Title                                    : Planet Earth II Episode 1: Islands (2016) BDRip 1080p ENG DTS Sub Ita Eng - Sciencefun
Writing library                          : x264 core 148 r2721 72d53ab
Encoding settings                        : cabac=1 / ref=4 / deblock=1:-3:-3 / analyse=0x3:0x113 / me=umh / subme=10 / psy=1 / psy_rd=1.00:0.00 / mixed_ref=1 / me_range=32 / chroma_me=1 / trellis=2 / 8x8dct=1 / cqm=0 / deadzone=21,11 / fast_pskip=1 / chroma_qp_offset=-2 / threads=6 / lookahead_threads=1 / sliced_threads=0 / nr=0 / decimate=1 / interlaced=0 / bluray_compat=0 / constrained_intra=0 / bframes=8 / b_pyramid=2 / b_adapt=2 / b_bias=0 / direct=1 / weightb=1 / open_gop=0 / weightp=2 / keyint=250 / keyint_min=25 / scenecut=40 / intra_refresh=0 / rc_lookahead=40 / rc=crf / mbtree=0 / crf=18.0 / qcomp=0.60 / qpmin=0 / qpmax=69 / qpstep=4 / vbv_maxrate=50000 / vbv_bufsize=62500 / crf_max=0.0 / nal_hrd=none / filler=0 / ip_ratio=1.40 / pb_ratio=1.30 / aq=1:0.80
Language                                 : English
Default                                  : Yes
Forced                                   : No
Color range                              : Limited
Matrix coefficients                      : BT.709

Audio
ID                                       : 2
Format                                   : DTS
Format/Info                              : Digital Theater Systems
Mode                                     : 16
Format settings, Endianness              : Big
Codec ID                                 : A_DTS
Duration                                 : 58 min 35 s
Bit rate mode                            : Constant
Bit rate                                 : 1 509 kb/s
Channel(s)                               : 6 channels
Channel positions                        : Front: L C R, Side: L R, LFE
Sampling rate                            : 48.0 kHz
Frame rate                               : 93.750 FPS (512 spf)
Bit depth                                : 16 bits
Compression mode                         : Lossy
Stream size                              : 632 MiB (10%)
Title                                    : DTS 5.1 @ 1509 kbps - Narrated by David Attenborough
Language                                 : English
Default                                  : No
Forced                                   : No

Text #1
ID                                       : 3
Format                                   : UTF-8
Codec ID                                 : S_TEXT/UTF8
Codec ID/Info                            : UTF-8 Plain Text
Duration                                 : 1 h 27 min
Bit rate                                 : 40 b/s
Count of elements                        : 569
Stream size                              : 25.9 KiB (0%)
Language                                 : Italian
Default                                  : Yes
Forced                                   : No

Text #2
ID                                       : 4
Format                                   : UTF-8
Codec ID                                 : S_TEXT/UTF8
Codec ID/Info                            : UTF-8 Plain Text
Duration                                 : 57 min 47 s
Bit rate                                 : 44 b/s
Count of elements                        : 467
Stream size                              : 19.0 KiB (0%)
Language                                 : English
Default                                  : No
Forced                                   : No

Menu
00:00:00.000                             : en:
00:11:55.678                             : en:
00:18:03.000                             : en:
00:32:22.000                             : en:
00:41:18.679                             : en:
00:49:56.559                             : en:


[/spoiler]



[spoiler]


[/spoiler]

Anteprima


Seed:
Singolo Webseed
Illimitato :giggle:  

[color=purple]fino a 100Mbit/s


Server: 1Gbps Upload <12h

[color=green]Seed in DHT

[IMG]http://s32.postimg.org/iqnkbi58h/cry.gif" alt="" onload="NcodeImageResizer.createOn(this);">
Mi Raccomando rimanete in Seed!!![/color][/color]







un :rr: è sempre ben accetto[/align]
Info: Per scaricare devi usare un client come uTorrent o Transmission
AnnounceURL
http://tracker.tntvillage.scambioetico.org:2710/announce
Hash 4c5ccc49cb78ddb867e68b74c2a16e9850bd1cc6
Peers seeds: 101 , leech: 63
Size 6.47 GB
Completato 1451x
Aggiunto 03.02.17 - 20:02:31
Uploader   Sciencefun
Votazione (Voti: 0)


Condividi questo bittorrent:


html/blog:


bbcode/forum:




Aggiungi Commento


counter