* Dettagli Torrent   globale  | Commenti (2) 


- Planet Earth II Episode 7 - Extras (2017) BDRip 1080p ENG DTS Sub Ita Eng - Sciencefun -


Download via torrent:
Categoria bittorrent BDRip
Descrizione
[align=center]

[SIZE=13]Planet Earth II[/SIZE]







Planet Earth II is a 2016 British nature documentary series produced by the BBC as a sequel to Planet Earth, which was broadcast in 2006.[1] The series is presented and narrated by Sir David Attenborough with the main theme music composed by Hans Zimmer.

EXTRAS

A compilation episode of the wildlife documentary series presented by David Attenborough, uncovering the secrets of animals across the globe.



[CITA=Sciencefun]
[youtube= c8aFcHFu8QM]
[/CITA]




[/align]
Genre Nature documentary
Presented by David Attenborough
Composer(s)
Hans Zimmer
Jasha Klebe
Jacob Shea
Country of origin United Kingdom
Original language(s) English
[align=center]



[spoiler]
General
Unique ID                                : 225749510004615617472511925412761853566 (0xA9D5C62D0C0BCBC08DAFD864722A5E7E)
Complete name                            : K:\UPLOADING\Planet Earth II Miei\Planet Earth II EXTRA - A World of Wonder (2016) BDRip 1080p ENG DTS Sub Ita Eng - Sciencefun.mkv
Format                                   : Matroska
Format version                           : Version 4 / Version 2
File size                                : 3.76 GiB
Duration                                 : 1 h 28 min
Overall bit rate                         : 6 053 kb/s
Movie name                               : Planet Earth II EXTRA - A World of Wonder (2016) BDRip 1080p ENG DTS Sub Ita Eng - Sciencefun
Encoded date                             : UTC 2017-02-03 14:55:24
Writing application                      : mkvmerge v9.5.0 ('Quiet Fire') 64bit
Writing library                          : libebml v1.3.4 + libmatroska v1.4.5

Video
ID                                       : 1
Format                                   : AVC
Format/Info                              : Advanced Video Codec
Format profile                           : [email protected]
Format settings, CABAC                   : Yes
Format settings, ReFrames                : 4 frames
Codec ID                                 : V_MPEG4/ISO/AVC
Duration                                 : 1 h 28 min
Bit rate                                 : 5 858 kb/s
Width                                    : 1 920 pixels
Height                                   : 1 080 pixels
Display aspect ratio                     : 16:9
Frame rate mode                          : Constant
Frame rate                               : 25.000 FPS
Standard                                 : Component
Color space                              : YUV
Chroma subsampling                       : 4:2:0
Bit depth                                : 8 bits
Scan type                                : MBAFF
Bits/(Pixel*Frame)                       : 0.113
Stream size                              : 3.64 GiB (97%)
Title                                    : Planet Earth II EXTRA - A World of Wonder (2016) BDRip 1080p ENG DTS Sub Ita Eng - Sciencefun
Default                                  : Yes
Forced                                   : No
Color range                              : Limited
Color primaries                          : BT.709
Transfer characteristics                 : BT.709
Matrix coefficients                      : BT.709

Audio
ID                                       : 2
Format                                   : AC-3
Format/Info                              : Audio Coding 3
Mode extension                           : CM (complete main)
Format settings, Endianness              : Big
Codec ID                                 : A_AC3
Duration                                 : 1 h 28 min
Bit rate mode                            : Constant
Bit rate                                 : 192 kb/s
Channel(s)                               : 2 channels
Channel positions                        : Front: L R
Sampling rate                            : 48.0 kHz
Frame rate                               : 31.250 FPS (1536 spf)
Compression mode                         : Lossy
Stream size                              : 122 MiB (3%)
Language                                 : English
Default                                  : Yes
Forced                                   : No

Text #1
ID                                       : 3
Format                                   : UTF-8
Codec ID                                 : S_TEXT/UTF8
Codec ID/Info                            : UTF-8 Plain Text
Duration                                 : 1 h 27 min
Bit rate                                 : 35 b/s
Count of elements                        : 559
Stream size                              : 22.8 KiB (0%)
Language                                 : English
Default                                  : No
Forced                                   : No

Text #2
ID                                       : 4
Format                                   : UTF-8
Codec ID                                 : S_TEXT/UTF8
Codec ID/Info                            : UTF-8 Plain Text
Duration                                 : 1 h 27 min
Bit rate                                 : 40 b/s
Count of elements                        : 569
Stream size                              : 25.9 KiB (0%)
Language                                 : Italian
Default                                  : Yes
Forced                                   : No



[/spoiler]



[spoiler]


[/spoiler]

Anteprima


Seed:
Singolo Webseed
Illimitato :giggle:  

[color=purple]fino a 100Mbit/s


Server: 1Gbps Upload <12h

[color=green]Seed in DHT

[IMG]http://s32.postimg.org/iqnkbi58h/cry.gif" alt="" onload="NcodeImageResizer.createOn(this);">
Mi Raccomando rimanete in Seed!!![/color][/color]







un :rr: è sempre ben accetto[/align]
Info: Per scaricare devi usare un client come uTorrent o Transmission
AnnounceURL
http://tracker.tntvillage.scambioetico.org:2710/announce
Hash 267b77c77c5c94264b28b9d58bedf5546baa1450
Peers seeds: 95 , leech: 37
Size 3.76 GB
Completato 1015x
Aggiunto 03.02.17 - 19:02:05
Uploader   Sciencefun
Votazione (Voti: 0)


Condividi questo bittorrent:


html/blog:


bbcode/forum:




Aggiungi Commento
Ultimi commenti
avatar   SciencefunSciencefun   
riuppo ora. risolto!
03/02 20.36
avatar   SciencefunSciencefun   
NB l'episodio 1 verrà aggiunto domani perchè devo sistemare una cosa con l'audio.
03/02 20.01
Tutti commenti (2)


counter