* Dettagli Torrent   globale  | Commenti (0) 


- Planet Earth II Episode 4 - Deserts (2016) BDRip 1080p ENG DTS Sub Ita Eng - Sciencefun -


Download via torrent:
Categoria bittorrent BDRip
Descrizione
[align=center]

[SIZE=13]Planet Earth II[/SIZE]







Planet Earth II is a 2016 British nature documentary series produced by the BBC as a sequel to Planet Earth, which was broadcast in 2006.[1] The series is presented and narrated by Sir David Attenborough with the main theme music composed by Hans Zimmer.

Episode 4 of 6
The world's deserts are lands of extremes that force animals to come up with ingenious ways of coping with hostile conditions, giving rise to the most incredible survival stories on earth.
A pride of desert lions are so hungry they risk hunting a giraffe several times their size, while male sandgrouse fly 120 miles each day to the nearest waterhole and dice with death to collect water for their chicks.

Filmed for the first time, a tiny bat does battle with one of the world's deadliest scorpions, and in Madagascar, a locust swarm of biblical proportions is seen as never before.




[CITA=Sciencefun]
[youtube= c8aFcHFu8QM]
[/CITA]




[/align]
Genre Nature documentary
Presented by David Attenborough
Composer(s)
Hans Zimmer
Jasha Klebe
Jacob Shea
Country of origin United Kingdom
Original language(s) English
[align=center]



[spoiler]
General
Unique ID                                : 180792198915227152142035160141398193261 (0x88034F9B17326BD5A74900DDDDC2B46D)
Complete name                            : K:\UPLOADING\Planet Earth II Miei\Planet Earth II Episode 4 - Deserts (2016) BDRip 1080p ENG DTS Sub Ita Eng - Sciencefun.mkv
Format                                   : Matroska
Format version                           : Version 4 / Version 2
File size                                : 5.86 GiB
Duration                                 : 58 min 10 s
Overall bit rate                         : 14.4 Mb/s
Movie name                               : Planet Earth II Episode 4: Deserts (2016) BDRip 1080p ENG DTS Sub Ita Eng - Sciencefun
Encoded date                             : UTC 2017-02-03 15:04:39
Writing application                      : mkvmerge v9.5.0 ('Quiet Fire') 64bit
Writing library                          : libebml v1.3.4 + libmatroska v1.4.5

Video
ID                                       : 1
Format                                   : AVC
Format/Info                              : Advanced Video Codec
Format profile                           : [email protected]
Format settings, CABAC                   : Yes
Format settings, ReFrames                : 4 frames
Codec ID                                 : V_MPEG4/ISO/AVC
Duration                                 : 58 min 10 s
Bit rate                                 : 12.9 Mb/s
Width                                    : 1 920 pixels
Height                                   : 1 080 pixels
Display aspect ratio                     : 16:9
Frame rate mode                          : Constant
Frame rate                               : 25.000 FPS
Color space                              : YUV
Chroma subsampling                       : 4:2:0
Bit depth                                : 8 bits
Scan type                                : Progressive
Bits/(Pixel*Frame)                       : 0.249
Stream size                              : 5.24 GiB (89%)
Title                                    : Planet Earth II Episode 4: Deserts (2016) BDRip 1080p ENG DTS Sub Ita Eng - Sciencefun
Writing library                          : x264 core 148 r2705 3f5ed56
Encoding settings                        : cabac=1 / ref=4 / deblock=1:-3:-3 / analyse=0x3:0x133 / me=umh / subme=10 / psy=1 / psy_rd=0.90:0.00 / mixed_ref=1 / me_range=48 / chroma_me=1 / trellis=2 / 8x8dct=1 / cqm=0 / deadzone=21,11 / fast_pskip=1 / chroma_qp_offset=-2 / threads=24 / lookahead_threads=4 / sliced_threads=0 / nr=0 / decimate=1 / interlaced=0 / bluray_compat=0 / constrained_intra=0 / bframes=8 / b_pyramid=2 / b_adapt=2 / b_bias=0 / direct=3 / weightb=1 / open_gop=0 / weightp=2 / keyint=250 / keyint_min=25 / scenecut=40 / intra_refresh=0 / rc=crf / mbtree=0 / crf=18.0 / qcomp=0.60 / qpmin=0 / qpmax=69 / qpstep=4 / ip_ratio=1.40 / pb_ratio=1.30 / aq=3:0.75
Default                                  : Yes
Forced                                   : No

Audio
ID                                       : 2
Format                                   : DTS
Format/Info                              : Digital Theater Systems
Mode                                     : 16
Format settings, Endianness              : Big
Codec ID                                 : A_DTS
Duration                                 : 58 min 10 s
Bit rate mode                            : Constant
Bit rate                                 : 1 509 kb/s
Channel(s)                               : 6 channels
Channel positions                        : Front: L C R, Side: L R, LFE
Sampling rate                            : 48.0 kHz
Frame rate                               : 93.750 FPS (512 spf)
Bit depth                                : 24 bits
Compression mode                         : Lossy
Stream size                              : 628 MiB (10%)
Language                                 : English
Default                                  : No
Forced                                   : No

Text #1
ID                                       : 3
Format                                   : UTF-8
Codec ID                                 : S_TEXT/UTF8
Codec ID/Info                            : UTF-8 Plain Text
Duration                                 : 56 min 55 s
Bit rate                                 : 51 b/s
Count of elements                        : 491
Stream size                              : 21.3 KiB (0%)
Language                                 : English
Default                                  : No
Forced                                   : No

Text #2
ID                                       : 4
Format                                   : UTF-8
Codec ID                                 : S_TEXT/UTF8
Codec ID/Info                            : UTF-8 Plain Text
Duration                                 : 57 min 35 s
Bit rate                                 : 53 b/s
Count of elements                        : 548
Stream size                              : 22.6 KiB (0%)
Title                                    : SDH
Language                                 : English
Default                                  : No
Forced                                   : No

Text #3
ID                                       : 5
Format                                   : PGS
Muxing mode                              : zlib
Codec ID                                 : S_HDMV/PGS
Codec ID/Info                            : Picture based subtitle format used on BDs/HD-DVDs
Duration                                 : 57 min 35 s
Bit rate                                 : 9 222 b/s
Count of elements                        : 1096
Stream size                              : 3.80 MiB (0%)
Language                                 : English
Default                                  : No
Forced                                   : No

Text #4
ID                                       : 6
Format                                   : UTF-8
Codec ID                                 : S_TEXT/UTF8
Codec ID/Info                            : UTF-8 Plain Text
Duration                                 : 56 min 55 s
Bit rate                                 : 49 b/s
Count of elements                        : 436
Stream size                              : 20.6 KiB (0%)
Language                                 : Italian
Default                                  : Yes
Forced                                   : No

Menu
00:00:00.000                             : en:00:00:00.000
00:10:32.720                             : en:00:10:32.720
00:20:48.400                             : en:00:20:48.400
00:29:21.160                             : en:00:29:21.160
00:42:40.800                             : en:00:42:40.800
00:48:07.960                             : en:00:48:07.960


[/spoiler]



[spoiler]


[/spoiler]

Anteprima


Seed:
Singolo Webseed
Illimitato :giggle:  

[color=purple]fino a 100Mbit/s


Server: 1Gbps Upload <12h

[color=green]Seed in DHT

[IMG]http://s32.postimg.org/iqnkbi58h/cry.gif" alt="" onload="NcodeImageResizer.createOn(this);">
Mi Raccomando rimanete in Seed!!![/color][/color]







un :rr: è sempre ben accetto[/align]
Info: Per scaricare devi usare un client come uTorrent o Transmission
AnnounceURL
http://tracker.tntvillage.scambioetico.org:2710/announce
Hash 5ba8248592e5ff6a177daf29f82f03532591457c
Peers seeds: 87 , leech: 64
Size 5.86 GB
Completato 834x
Aggiunto 03.02.17 - 19:02:44
Uploader   Sciencefun
Votazione (Voti: 0)


Condividi questo bittorrent:


html/blog:


bbcode/forum:




Aggiungi Commento


counter