* Dettagli Torrent   globale  | Commenti (0) 


- Planet Earth II Episode 3 - Jungles (2016) BDRip 1080p ENG DTS Sub Ita Eng - Sciencefun -


Download via torrent:
Categoria bittorrent BDRip
Descrizione
[align=center]

[SIZE=13]Planet Earth II[/SIZE]







Planet Earth II is a 2016 British nature documentary series produced by the BBC as a sequel to Planet Earth, which was broadcast in 2006.[1] The series is presented and narrated by Sir David Attenborough with the main theme music composed by Hans Zimmer.

Episode 3 of 6
Jungles provide the richest habitats on the planet - mysterious worlds of high drama where extraordinary animals attempt to survive in the most competitive place on earth. Flooded forests are home to caiman-hunting jaguars and strange dolphins that swim amongst the tree tops, while in the dense underworld, ninja frogs fight off wasps and flying dragons soar between trees. Acrobatic indri leap through the forests of Madagascar, while the jungle night conceals strange fungi and glow-in-the-dark creatures never filmed before.



[CITA=Sciencefun]
[youtube= c8aFcHFu8QM]
[/CITA]




[/align]
Genre Nature documentary
Presented by David Attenborough
Composer(s)
Hans Zimmer
Jasha Klebe
Jacob Shea
Country of origin United Kingdom
Original language(s) English
[align=center]



[spoiler]
General
Unique ID                                : 211783213461973637431286700026417292262 (0x9F53F697B733F862B19EE0816A2EA3E6)
Complete name                            : K:\UPLOADING\Planet Earth II Miei\Planet Earth II Episode 3 - Jungles (2016) BDRip 1080p ENG DTS Sub Ita Eng - Sciencefun.mkv
Format                                   : Matroska
Format version                           : Version 4 / Version 2
File size                                : 6.26 GiB
Duration                                 : 58 min 4 s
Overall bit rate                         : 15.4 Mb/s
Movie name                               : Planet Earth II Episode 3: Jungles (2016) BDRip 1080p ENG DTS Sub Ita Eng - Sciencefun
Encoded date                             : UTC 2017-02-03 15:07:15
Writing application                      : mkvmerge v9.5.0 ('Quiet Fire') 64bit
Writing library                          : libebml v1.3.4 + libmatroska v1.4.5

Video
ID                                       : 1
Format                                   : AVC
Format/Info                              : Advanced Video Codec
Format profile                           : [email protected]
Format settings, CABAC                   : Yes
Format settings, ReFrames                : 4 frames
Codec ID                                 : V_MPEG4/ISO/AVC
Duration                                 : 58 min 4 s
Bit rate                                 : 13.9 Mb/s
Width                                    : 1 920 pixels
Height                                   : 1 080 pixels
Display aspect ratio                     : 16:9
Frame rate mode                          : Constant
Frame rate                               : 25.000 FPS
Color space                              : YUV
Chroma subsampling                       : 4:2:0
Bit depth                                : 8 bits
Scan type                                : Progressive
Bits/(Pixel*Frame)                       : 0.269
Stream size                              : 5.65 GiB (90%)
Title                                    : Planet Earth II Episode 3: Jungles (2016) BDRip 1080p ENG DTS Sub Ita Eng - Sciencefun
Writing library                          : x264 core 148 r2705 3f5ed56
Encoding settings                        : cabac=1 / ref=4 / deblock=1:-3:-3 / analyse=0x3:0x133 / me=umh / subme=10 / psy=1 / psy_rd=0.90:0.00 / mixed_ref=1 / me_range=48 / chroma_me=1 / trellis=2 / 8x8dct=1 / cqm=0 / deadzone=21,11 / fast_pskip=1 / chroma_qp_offset=-2 / threads=24 / lookahead_threads=4 / sliced_threads=0 / nr=0 / decimate=1 / interlaced=0 / bluray_compat=0 / constrained_intra=0 / bframes=8 / b_pyramid=2 / b_adapt=2 / b_bias=0 / direct=3 / weightb=1 / open_gop=0 / weightp=2 / keyint=250 / keyint_min=25 / scenecut=40 / intra_refresh=0 / rc=crf / mbtree=0 / crf=18.0 / qcomp=0.60 / qpmin=0 / qpmax=69 / qpstep=4 / ip_ratio=1.40 / pb_ratio=1.30 / aq=3:0.75
Default                                  : Yes
Forced                                   : No

Audio
ID                                       : 3
Format                                   : DTS
Format/Info                              : Digital Theater Systems
Mode                                     : 16
Format settings, Endianness              : Big
Codec ID                                 : A_DTS
Duration                                 : 58 min 4 s
Bit rate mode                            : Constant
Bit rate                                 : 1 509 kb/s
Channel(s)                               : 6 channels
Channel positions                        : Front: L C R, Side: L R, LFE
Sampling rate                            : 48.0 kHz
Frame rate                               : 93.750 FPS (512 spf)
Bit depth                                : 24 bits
Compression mode                         : Lossy
Stream size                              : 627 MiB (10%)
Language                                 : English
Default                                  : No
Forced                                   : No

Text #1
ID                                       : 2
Format                                   : UTF-8
Codec ID                                 : S_TEXT/UTF8
Codec ID/Info                            : UTF-8 Plain Text
Duration                                 : 57 min 9 s
Bit rate                                 : 51 b/s
Count of elements                        : 477
Stream size                              : 21.6 KiB (0%)
Language                                 : Italian
Default                                  : Yes
Forced                                   : No

Text #2
ID                                       : 4
Format                                   : UTF-8
Codec ID                                 : S_TEXT/UTF8
Codec ID/Info                            : UTF-8 Plain Text
Duration                                 : 56 min 52 s
Bit rate                                 : 52 b/s
Count of elements                        : 499
Stream size                              : 22.0 KiB (0%)
Language                                 : English
Default                                  : No
Forced                                   : No

Text #3
ID                                       : 5
Format                                   : UTF-8
Codec ID                                 : S_TEXT/UTF8
Codec ID/Info                            : UTF-8 Plain Text
Duration                                 : 57 min 24 s
Bit rate                                 : 54 b/s
Count of elements                        : 522
Stream size                              : 22.8 KiB (0%)
Title                                    : SDH
Language                                 : English
Default                                  : No
Forced                                   : No

Text #4
ID                                       : 6
Format                                   : PGS
Muxing mode                              : zlib
Codec ID                                 : S_HDMV/PGS
Codec ID/Info                            : Picture based subtitle format used on BDs/HD-DVDs
Duration                                 : 57 min 24 s
Bit rate                                 : 9 029 b/s
Count of elements                        : 1044
Stream size                              : 3.71 MiB (0%)
Language                                 : English
Default                                  : No
Forced                                   : No

Menu
00:00:00.000                             : en:00:00:00.000
00:11:38.720                             : en:00:11:38.720
00:19:45.200                             : en:00:19:45.200
00:29:46.680                             : en:00:29:46.680
00:40:16.680                             : en:00:40:16.680
00:49:02.760                             : en:00:49:02.760


[/spoiler]



[spoiler]


[/spoiler]

Anteprima


Seed:
Singolo Webseed
Illimitato :giggle:  

[color=purple]fino a 100Mbit/s


Server: 1Gbps Upload <12h

[color=green]Seed in DHT

[IMG]http://s32.postimg.org/iqnkbi58h/cry.gif" alt="" onload="NcodeImageResizer.createOn(this);">
Mi Raccomando rimanete in Seed!!![/color][/color]







un :rr: è sempre ben accetto[/align]
Info: Per scaricare devi usare un client come uTorrent o Transmission
AnnounceURL
http://tracker.tntvillage.scambioetico.org:2710/announce
Hash 2b30d22f26d7694befb2e1f35a8784125dd3e479
Peers seeds: 95 , leech: 62
Size 6.26 GB
Completato 888x
Aggiunto 03.02.17 - 18:02:03
Uploader   Sciencefun
Votazione (Voti: 0)


Condividi questo bittorrent:


html/blog:


bbcode/forum:




Aggiungi Commento


counter