* Dettagli Torrent   globale  | Commenti (0) 


- Verdetto.Finale.(1991).H264.Ita.Eng.Ac3.5.1.sub.ita.iCV-MIRCrew -


Download via torrent:
Categoria bittorrent BDRip
Descrizione
Verdetto.Finale.(1991).H264.Ita.Eng.Ac3.5.1.sub.ita.iCV-MIRCrew

[color=red][b]
NO FOUND ONLY ORIGINAL RELEASE





For select audio use VLC or dvd player home

[size=36pt]Verdetto Finale

(1991)[/size]









   DATA USCITA: 1991
   GENERE: Drammatico
   REGIA: Russell Mulcahy
   SCENEGGIATURA: Steven E. de Souza
   FOTOGRAFIA: Peter Levy
   MONTAGGIO: Peter Honess
   MUSICHE: Alan Silvestri
   PRODUZIONE: JOEL SILVER, MICHAEL LEVY
   PAESE: USA
   DURATA: 101 Min



Denzel Washington, John Lithgow, Ice-T, Kevin Pollak, Lindsay Wagner, Mary Ellen Trainor, Josh Evans, John Amos, John Cothran Jr., Victoria Dillard, Linda Dona'



Durante i suoi sette anni di galera, l'assassino e violento Earl Talbot Blake cova un odio feroce contro colui che l'ha imprigionato: l'ex poliziotto di colore e vice-procuratore distrettuale Nick Styles. Il primo è un criminale spietato (iscrittosi alla Fratellanza ariana che impera tra i carcerati, soprattutto perché il nemico è di colore); l'altro un uomo onesto ed integro, diventato celebre grazie ai mass-media, perché aveva catturato Blake. Dopo una spericolata evasione (con massacro di agenti), Blake dato per morto, invece è in circolazione, con un solo proposito: umiliare il giovane poliziotto ora magistrato, affogarlo nel fango del discredito, perseguire lui, moglie e bambine e, infine, ucciderlo, per assaporare il proprio primato. Blake usa tutti i mezzi possibili: cattura Nick, lo droga e poi lo ritrae semi intontito in una pornocassetta; lo coinvolge nella squallida storia di un pedofilo che Nick conosce; ne compromette il successo come benefattore (Styles si è fatto promotore di una iniziativa edilizia, un grande asilo per gli orfani abbandonati). Ma Styles ha le sue idee e tutta l'energia per reagire. Affidata la famiglia ad Odessa, un uomo di colore (un capo banda di spacciatori che lo stima), egli cerca di scontrarsi con Blake. Il terribile duello finale si svolge in vetta alla struttura dell'edificio in costruzione dove Nick riesce ad eliminarlo.



During his seven years in prison, the murderess and violent Earl Talbot Blake harbors a fierce hatred against the one who imprisoned: the former black cop and deputy district attorney Nick Styles. The first is a ruthless criminal (He enrolled at the Aryan Brotherhood that reigns among the prisoners, especially since the enemy is in color); the other an honest and upright man, who became famous thanks to the mass media, because they had caught Blake. After a daring escape (with the massacre of agents), Blake left for dead, but it's in circulation, with one purpose: to humiliate the young policeman now magistrate, drown in the mud of disrepute, prosecute him, his wife and children and eventually kill him , to savor its primacy. Blake uses all possible means: catching Nick, drugs him and then shows him in a semi-daze pornocassetta; It involves him in squalid story of a pedophile that Nick knows; It compromises the success as a benefactor (Styles has promoted a housing initiative, a great haven for abandoned orphans). But Styles has his own ideas and all the energy to react. Entrusted his family to Odessa, a black man (a chief gang of drug dealers who estimate), he tries to struggle with Blake. The terrible final duel takes place at the top of the building structure under construction where Nick is able to delete it.













[spoiler]
General
Unique ID                                : 209252172959246213802354295409467971304 (0x9D6C80A94811607A3C204E0DAB4BD6E
Complete name                            : Verdetto.Finale.(1991).H264.Ita.Eng.Ac3.5.1.sub.ita.iCV-MIRCrew.mkv
Format                                   : Matroska
Format version                           : Version 2
File size                                : 1.54 GiB
Duration                                 : 1 h 38 min
Overall bit rate                         : 2 245 kb/s
FILM : VISIT [url]WWW.ICV-CREW.ORG[/url]
Encoded date                             : UTC 2016-11-13T15:05:35Z
Writing application                      : HandBrake 0.10.5 2016021100
Writing library                          : Lavf55.12.0 / Lavf55.12.0

Video
ID                                       : 1
Format                                   : AVC
Format/Info                              : Advanced Video Codec
Format profile                           : [email protected]
Format settings, CABAC                   : Yes
Format settings, ReFrames                : 4 frames
Codec ID                                 : V_MPEG4/ISO/AVC
Duration                                 : 1 h 38 min
Bit rate                                 : 1 270 kb/s
Width                                    : 720 pixels
Height                                   : 576 pixels
Display aspect ratio                     : 16:9
Frame rate mode                          : Constant
Frame rate                               : 25.000 FPS
Standard                                 : PAL
Color space                              : YUV
Chroma subsampling                       : 4:2:0
Bit depth                                : 8 bits
Scan type                                : Progressive
Bits/(Pixel*Frame)                       : 0.122
Stream size                              : 871 MiB (55%)
Writing library                          : x264 core 142 r2479 dd79a61
Encoding settings                        : cabac=1 / ref=1 / deblock=1:0:0 / analyse=0x1:0x111 / me=hex / subme=2 / psy=1 / psy_rd=1.00:0.00 / mixed_ref=0 / me_range=16 / chroma_me=1 / trellis=0 / 8x8dct=0 / cqm=0 / deadzone=21,11 / fast_pskip=1 / chroma_qp_offset=0 / threads=6 / lookahead_threads=2 / sliced_threads=0 / nr=0 / decimate=1 / interlaced=0 / bluray_compat=0 / constrained_intra=0 / bframes=3 / b_pyramid=2 / b_adapt=1 / b_bias=0 / direct=1 / weightb=1 / open_gop=0 / weightp=1 / keyint=250 / keyint_min=25 / scenecut=40 / intra_refresh=0 / rc_lookahead=10 / rc=2pass / mbtree=1 / bitrate=1270 / ratetol=1.0 / qcomp=0.60 / qpmin=0 / qpmax=69 / qpstep=4 / cplxblur=20.0 / qblur=0.5 / vbv_maxrate=20000 / vbv_bufsize=25000 / nal_hrd=none / filler=0 / ip_ratio=1.40 / aq=1:1.00
Default                                  : Yes
Forced                                   : No
Color range                              : Limited
Color primaries                          : BT.601 PAL
Transfer characteristics                 : BT.709
Matrix coefficients                      : BT.601

Audio #1
ID                                       : 2
Format                                   : AC-3
Format/Info                              : Audio Coding 3
Format profile                           : Dolby Digital
Mode extension                           : CM (complete main)
Format settings, Endianness              : Big
Codec ID                                 : A_AC3
Duration                                 : 1 h 38 min
Bit rate mode                            : Constant
Bit rate                                 : 448 kb/s
Channel(s)                               : 2 channels
Channel positions                        : Front: L R
Sampling rate                            : 48.0 kHz
Frame rate                               : 31.250 FPS (1536 spf)
Bit depth                                : 16 bits
Compression mode                         : Lossy
Delay relative to video                  : -5 ms
Stream size                              : 315 MiB (20%)
Title                                    : Stereo
Language                                 : Italian
Default                                  : Yes
Forced                                   : No

Audio #2
ID                                       : 3
Format                                   : AC-3
Format/Info                              : Audio Coding 3
Mode extension                           : CM (complete main)
Format settings, Endianness              : Big
Codec ID                                 : A_AC3
Duration                                 : 1 h 38 min
Bit rate mode                            : Constant
Bit rate                                 : 256 kb/s
Channel(s)                               : 2 channels
Channel positions                        : Front: L R
Sampling rate                            : 48.0 kHz
Frame rate                               : 31.250 FPS (1536 spf)
Bit depth                                : 16 bits
Compression mode                         : Lossy
Delay relative to video                  : -5 ms
Stream size                              : 180 MiB (11%)
Title                                    : Stereo
Language                                 : Italian
Default                                  : No
Forced                                   : No

Audio #3
ID                                       : 4
Format                                   : AC-3
Format/Info                              : Audio Coding 3
Mode extension                           : CM (complete main)
Format settings, Endianness              : Big
Codec ID                                 : A_AC3
Duration                                 : 1 h 38 min
Bit rate mode                            : Constant
Bit rate                                 : 256 kb/s
Channel(s)                               : 2 channels
Channel positions                        : Front: L R
Sampling rate                            : 48.0 kHz
Frame rate                               : 31.250 FPS (1536 spf)
Bit depth                                : 16 bits
Compression mode                         : Lossy
Delay relative to video                  : -5 ms
Stream size                              : 180 MiB (11%)
Title                                    : Stereo
Language                                 : English
Default                                  : No
Forced                                   : No

Text #1
ID                                       : 5
Format                                   : VobSub
Codec ID                                 : S_VOBSUB
Codec ID/Info                            : Picture based subtitle format used on DVDs
Language                                 : Italian
Default                                  : No
Forced                                   : No

Text #2
ID                                       : 6
Format                                   : VobSub
Codec ID                                 : S_VOBSUB
Codec ID/Info                            : Picture based subtitle format used on DVDs
Language                                 : Italian
Default                                  : No
Forced                                   : No

Menu
00:00:00.000                             : :Chapter 1
00:13:25.520                             : :Chapter 2
00:21:57.840                             : :Chapter 3
00:33:21.800                             : :Chapter 4
00:44:00.000                             : :Chapter 5
00:49:59.920                             : :Chapter 6
01:02:39.080                             : :Chapter 7
01:18:25.640                             : :Chapter 8

[/spoiler]





Info: Per scaricare devi usare un client come uTorrent o Transmission
AnnounceURL
udp://tracker.coppersurfer.tk:6969/announce
Hash 02e372e40e1a29ff19b6e85a0b78807f27bb8eaa
Peers seeds: 15 , leech: 5
Size 1.54 GB
Completato 391x
Aggiunto 11.12.16 - 10:12:14
Uploader   BaMax71
Votazione (Voti: 0)


Condividi questo bittorrent:


html/blog:


bbcode/forum:




Aggiungi Commento


counter