* Dettagli Torrent   globale  | Commenti (0) 


- Lultimo.Padrino.(2008).H264.Ita.Ac3.2.0.iCV-MIRCrew -


Download via torrent:
Categoria bittorrent BDRip
Descrizione
Lultimo.Padrino.(200.H264.Ita.Ac3.2.0.iCV-MIRCrew

[color=red][b]
NO FOUND ONLY ORIGINAL RELEASE





For select audio use VLC or dvd player home

[size=36pt]L'Ultimo Padrino
+EXTRA BONUS

(200[/size]









   DATA USCITA: 2008
   GENERE: Drammatico
   REGIA: Marco Risi
   SCENEGGIATURA: Stefano Bises, Leonardo Fasoli, Giovanni Bianconi, Stefano Rulli
   FOTOGRAFIA: Marco Onorato
   MONTAGGIO: Carlo Fontana, Pietro Morana
   MUSICHE: Giancarlo Bigazzi, Marco Falagiani
   PRODUZIONE: PIETRO VALSECCHI PER TAODUE
   PAESE: ITA
   DURATA: 180 Min



Michele Placido, Daniele Pecci, Micaela Ramazzotti, Marco Leonardi, Raffaele Vannoli, Gaetano Amato, Ninni Bruschetta, Guido Caprino, Giacinto Ferro, Nino Frassica, Biagio Pelligra, Imma Piro, Francesco Benigno, Carmelo Galati, Marco Guadagno, Giovanni Martorana, Orio Scaduto



Dopo la cattura di Totò Riina, il comando di Cosa Nostra passa a un altro boss, Bernardo Provenzano. Anche lui, come il suo predecessore, è partito da Corleone e ha realizzato una mirabolante scalata fino ai vertici della mafia siciliana. La sua figura campeggia dietro ognuno degli eventi terribili che hanno segnato il nostro paese, dai delitti politici alle stragi in cui persero la vita i giudici Falcone e Borsellino che avevano tentato di opporsi allo strapotere mafioso. Provenzano, che si deve confrontare con una Cosa Nostra indebolita dalla sfida con lo Stato e dalle rivelazioni dei collaboratori di giustizia, riesce a ricostruirla dalla base. Con lui cambia radicalmente la strategia mafiosa: gli attacchi a viso aperto alle istituzioni sono messi al bando e si applica, invece, la cosiddetta "strategia dell'immersione", rinsaldando la tela di relazioni politico-economiche che consentono alla mafia siciliana di rimettersi in sesto e di controllare ogni mossa dello Stato. Di lui non si sa nulla. Gli inquirenti hanno un'unica sua foto che risale alla sua giovinezza. Nessun pentito lo ha mai visto in faccia e nessuno sa dire dove si nasconda o chi lo protegga. Per 40 anni questo potente boss mafioso sfugge alla giustizia. Ma c'è un poliziotto, il vicequestore Sanna, che ha giurato a se stesso di riuscire a trovare il misterioso uomo con gli occhiali da sole della fotografia...



After the capture of Totò Riina, the Cosa Nostra command switches to another boss, Bernardo Provenzano. He, like his predecessor, he left Corleone and made a dazzling ascent to the top of the Sicilian Mafia. His figure stands behind each of the terrible events that have marked our country, the political killings in the massacres that killed Falcone and Borsellino judges who had tried to oppose the mafia dominance. Provenzano, who is faced with a Cosa Nostra weakened by the challenge with the state and by the revelations of the collaborators of Justice, manages to reconstruct it from the base. With open to institutions face attacks are banned and applies, however, the so-called "immersion" strategy, reinforcing the fabric of political and economic relations that allow him to get back to the Sicilian Mafia Mafia radically changes the strategy: sixth and to control every state move. Of him we know nothing. Investigators have a single picture of him dating back to his youth. No repentant one has ever seen in the face and no one knows where it is hidden or who protect him. For 40 years this powerful Mafia boss escapes justice. But there is a policeman, the assistant chief Sanna, who has vowed to be able to find the mysterious man with the sunglasses of photography ...













[spoiler]
General
Unique ID                                : 192254118571569920820612760804511666478 (0x90A2CBE024319EFF503B7B2A9183512E)
Complete name                            : Lultimo.Padrino.(200.H264.Ita.Ac3.2.0.iCV-MIRCrew.mkv
Format                                   : Matroska
Format version                           : Version 2
File size                                : 1 010 MiB
Duration                                 : 1 h 32 min
Overall bit rate                         : 1 529 kb/s
FILM : VISIT [url]WWW.ICV-CREW.ORG[/url]
Encoded date                             : UTC 2016-11-16T23:35:27Z
Writing application                      : HandBrake 0.10.5 2016021100
Writing library                          : Lavf55.12.0 / Lavf55.12.0

Video
ID                                       : 1
Format                                   : AVC
Format/Info                              : Advanced Video Codec
Format profile                           : [email protected]
Format settings, CABAC                   : Yes
Format settings, ReFrames                : 4 frames
Codec ID                                 : V_MPEG4/ISO/AVC
Duration                                 : 1 h 32 min
Bit rate                                 : 1 270 kb/s
Width                                    : 718 pixels
Height                                   : 398 pixels
Display aspect ratio                     : 16:9
Frame rate mode                          : Constant
Frame rate                               : 24.964 FPS
Color space                              : YUV
Chroma subsampling                       : 4:2:0
Bit depth                                : 8 bits
Scan type                                : Progressive
Bits/(Pixel*Frame)                       : 0.178
Stream size                              : 821 MiB (81%)
Writing library                          : x264 core 142 r2479 dd79a61
Encoding settings                        : cabac=1 / ref=1 / deblock=1:0:0 / analyse=0x1:0x111 / me=hex / subme=2 / psy=1 / psy_rd=1.00:0.00 / mixed_ref=0 / me_range=16 / chroma_me=1 / trellis=0 / 8x8dct=0 / cqm=0 / deadzone=21,11 / fast_pskip=1 / chroma_qp_offset=0 / threads=6 / lookahead_threads=2 / sliced_threads=0 / nr=0 / decimate=1 / interlaced=0 / bluray_compat=0 / constrained_intra=0 / bframes=3 / b_pyramid=2 / b_adapt=1 / b_bias=0 / direct=1 / weightb=1 / open_gop=0 / weightp=1 / keyint=250 / keyint_min=25 / scenecut=40 / intra_refresh=0 / rc_lookahead=10 / rc=2pass / mbtree=1 / bitrate=1270 / ratetol=1.0 / qcomp=0.60 / qpmin=0 / qpmax=69 / qpstep=4 / cplxblur=20.0 / qblur=0.5 / vbv_maxrate=20000 / vbv_bufsize=25000 / nal_hrd=none / filler=0 / ip_ratio=1.40 / aq=1:1.00
Default                                  : Yes
Forced                                   : No
Color range                              : Limited
Color primaries                          : BT.601 PAL
Transfer characteristics                 : BT.709
Matrix coefficients                      : BT.601

Audio
ID                                       : 2
Format                                   : AC-3
Format/Info                              : Audio Coding 3
Mode extension                           : CM (complete main)
Format settings, Endianness              : Big
Codec ID                                 : A_AC3
Duration                                 : 1 h 32 min
Bit rate mode                            : Constant
Bit rate                                 : 256 kb/s
Channel(s)                               : 2 channels
Channel positions                        : Front: L R
Sampling rate                            : 48.0 kHz
Frame rate                               : 31.250 FPS (1536 spf)
Bit depth                                : 16 bits
Compression mode                         : Lossy
Delay relative to video                  : -5 ms
Stream size                              : 169 MiB (17%)
Title                                    : Stereo
Language                                 : Italian
Default                                  : Yes
Forced                                   : No

Menu
00:00:00.000                             : :Chapter 1
00:14:42.780                             : :Chapter 2
00:29:35.580                             : :Chapter 3
00:45:07.340                             : :Chapter 4
01:03:05.340                             : :Chapter 5
01:16:31.740                             : :Chapter 6

[/spoiler]





Info: Per scaricare devi usare un client come uTorrent o Transmission
AnnounceURL
udp://tracker.coppersurfer.tk:6969/announce
Hash d57991c6d3b3a2cb66cf0127a88b720acb202da3
Peers seeds: 30 , leech: 5
Size 2.06 GB
Completato 642x
Aggiunto 11.12.16 - 10:12:32
Uploader   BaMax71
Votazione (Voti: 0)


Condividi questo bittorrent:


html/blog:


bbcode/forum:




Aggiungi Commento


counter