* Dettagli Torrent   globale  | Commenti (0) 


- Troy.(2004).H264.Ita.Eng.Ac3.5.1.sub.ita.eng.iCV-MIRCrew -


Download via torrent:
Categoria bittorrent BDRip
Descrizione
Troy.(2004).H264.Ita.Eng.Ac3.5.1.sub.ita.eng.iCV-MIRCrew

[color=red][b]
NO FOUND ONLY ORIGINAL RELEASE





For select audio use VLC or dvd player home

[size=36pt]Troy

(2004)[/size]









   DATA USCITA: 2004
   GENERE: Avventura
   REGIA: Wolfgang Petersen
   SCENEGGIATURA: David Benioff
   FOTOGRAFIA: Roger Pratt
   MONTAGGIO: Peter Honess
   MUSICHE: Gabriel Yared, James Horner
   PRODUZIONE: Wolfgang Petersen, Diana Rathbun, Colin Wilson,
   PAESE: USA
   DURATA: 161 Min



Brad Pitt, Eric Bana, Orlando Bloom, Diane Kruger, Sean Bean, Brian Cox, Peter O'Toole, Brendan Gleeson, Saffron Burrows, Rose Byrne, Julie Christie, Garrett Hedlund, Adoni Maropis, Tyler Mane, James Cosmo, Julian Glover, Owain Yeoman, Alex King, Trevor Eve



Nell'antica Grecia, la passione dei due tra i più famosi amanti della letteratura, Paride principe di Troia e Elena regina di Sparta, fece scatenare una guerra che distrusse una intera civiltà. Quando Paride porta via Elena al marito Menelao, re di Sparta, compie un affronto intollerabile verso tutta la famiglia, e quindi anche nei confronti del fratello di questi, Agamennone, il potente sovrano di Micene, il quale rapidamente chiama a raccolta tutti i regnanti della Grecia per lavare l'onta subita. In realtà Agamennone non vuole solo difendere l'onore della famiglia, ma anche soddisfare la sua enorme avidità conquistando Troia per prendere il controllo dell'Egeo e assicurarsi così la supremazia del suo già vasto impero. La città governata da Priamo e difesa dal principe Ettore è circondata da alte mura e non è mai stata espugnata. Il solo uomo che può determinare la vittoria o la sconfitta di Troia è il greco Achille, il guerriero più forte in vita all'epoca....



In ancient Greece, the passion of two of the most famous lovers of literature, Prince Paris of Troy and Queen Helen of Sparta, he start a war that destroyed an entire civilization. When Paris takes away Helen to her husband Menelaus, King of Sparta, makes an intolerable affront to the whole family, and therefore also against the brother of these, Agamemnon, the powerful ruler of Mycenae, who quickly called together all the rulers of Greece to wash the insult. Actually Agamemnon not only wants to defend the honor of the family, but also to satisfy his enormous greed conquering Troy to take control and make the Aegean so the supremacy of his already vast empire. The city ruled by Priam and defended by Prince Hector is surrounded by high walls and has never been conquered. The only man who can determine victory or defeat of Troy is the greek Achilles, the strongest warrior alive at the time ....













[spoiler]
General
Unique ID                                : 48455207720266882505326498538555717313 (0x2474223065EA8E378B55AD34A3D036C1)
Complete name                            : Troy.(2004).H264.Ita.Eng.Ac3.5.1.sub.ita.eng.iCV-MIRCrew.mkv
Format                                   : Matroska
Format version                           : Version 2
File size                                : 2.37 GiB
Duration                                 : 2 h 36 min
Overall bit rate                         : 2 176 kb/s
FILM : VISIT [url]WWW.ICV-CREW.ORG[/url]
Encoded date                             : UTC 2016-11-17T20:22:32Z
Writing application                      : HandBrake 0.10.5 2016021100
Writing library                          : Lavf55.12.0 / Lavf55.12.0

Video
ID                                       : 1
Format                                   : AVC
Format/Info                              : Advanced Video Codec
Format profile                           : [email protected]
Format settings, CABAC                   : Yes
Format settings, ReFrames                : 4 frames
Codec ID                                 : V_MPEG4/ISO/AVC
Duration                                 : 2 h 36 min
Bit rate                                 : 1 270 kb/s
Width                                    : 720 pixels
Height                                   : 424 pixels
Display aspect ratio                     : 2.40:1
Frame rate mode                          : Constant
Frame rate                               : 25.000 FPS
Color space                              : YUV
Chroma subsampling                       : 4:2:0
Bit depth                                : 8 bits
Scan type                                : Progressive
Bits/(Pixel*Frame)                       : 0.166
Stream size                              : 1.35 GiB (57%)
Writing library                          : x264 core 142 r2479 dd79a61
Encoding settings                        : cabac=1 / ref=1 / deblock=1:0:0 / analyse=0x1:0x111 / me=hex / subme=2 / psy=1 / psy_rd=1.00:0.00 / mixed_ref=0 / me_range=16 / chroma_me=1 / trellis=0 / 8x8dct=0 / cqm=0 / deadzone=21,11 / fast_pskip=1 / chroma_qp_offset=0 / threads=6 / lookahead_threads=2 / sliced_threads=0 / nr=0 / decimate=1 / interlaced=0 / bluray_compat=0 / constrained_intra=0 / bframes=3 / b_pyramid=2 / b_adapt=1 / b_bias=0 / direct=1 / weightb=1 / open_gop=0 / weightp=1 / keyint=250 / keyint_min=25 / scenecut=40 / intra_refresh=0 / rc_lookahead=10 / rc=2pass / mbtree=1 / bitrate=1270 / ratetol=1.0 / qcomp=0.60 / qpmin=0 / qpmax=69 / qpstep=4 / cplxblur=20.0 / qblur=0.5 / vbv_maxrate=20000 / vbv_bufsize=25000 / nal_hrd=none / filler=0 / ip_ratio=1.40 / aq=1:1.00
Default                                  : Yes
Forced                                   : No
Color range                              : Limited
Color primaries                          : BT.601 PAL
Transfer characteristics                 : BT.709
Matrix coefficients                      : BT.601

Audio #1
ID                                       : 2
Format                                   : AC-3
Format/Info                              : Audio Coding 3
Format profile                           : Dolby Digital
Mode extension                           : CM (complete main)
Format settings, Endianness              : Big
Codec ID                                 : A_AC3
Duration                                 : 2 h 36 min
Bit rate mode                            : Constant
Bit rate                                 : 448 kb/s
Channel(s)                               : 2 channels
Channel positions                        : Front: L R
Sampling rate                            : 48.0 kHz
Frame rate                               : 31.250 FPS (1536 spf)
Bit depth                                : 16 bits
Compression mode                         : Lossy
Delay relative to video                  : -5 ms
Stream size                              : 500 MiB (21%)
Title                                    : Stereo
Language                                 : English
Default                                  : Yes
Forced                                   : No

Audio #2
ID                                       : 3
Format                                   : AC-3
Format/Info                              : Audio Coding 3
Format profile                           : Dolby Digital
Mode extension                           : CM (complete main)
Format settings, Endianness              : Big
Codec ID                                 : A_AC3
Duration                                 : 2 h 36 min
Bit rate mode                            : Constant
Bit rate                                 : 448 kb/s
Channel(s)                               : 2 channels
Channel positions                        : Front: L R
Sampling rate                            : 48.0 kHz
Frame rate                               : 31.250 FPS (1536 spf)
Bit depth                                : 16 bits
Compression mode                         : Lossy
Delay relative to video                  : -5 ms
Stream size                              : 500 MiB (21%)
Title                                    : Stereo
Language                                 : Italian
Default                                  : No
Forced                                   : No

Text #1
ID                                       : 4
Format                                   : VobSub
Codec ID                                 : S_VOBSUB
Codec ID/Info                            : Picture based subtitle format used on DVDs
Language                                 : English
Default                                  : No
Forced                                   : No

Text #2
ID                                       : 5
Format                                   : VobSub
Codec ID                                 : S_VOBSUB
Codec ID/Info                            : Picture based subtitle format used on DVDs
Language                                 : Italian
Default                                  : No
Forced                                   : No

Text #3
ID                                       : 6
Format                                   : VobSub
Codec ID                                 : S_VOBSUB
Codec ID/Info                            : Picture based subtitle format used on DVDs
Language                                 : Italian
Default                                  : No
Forced                                   : No

Text #4
ID                                       : 7
Format                                   : VobSub
Codec ID                                 : S_VOBSUB
Codec ID/Info                            : Picture based subtitle format used on DVDs
Language                                 : Italian
Default                                  : No
Forced                                   : No

Menu
00:00:00.000                             : :Chapter 1
00:01:56.848                             : :Chapter 2
00:06:28.176                             : :Chapter 3
00:08:59.296                             : :Chapter 4
00:13:56.936                             : :Chapter 5
00:18:39.176                             : :Chapter 6
00:20:23.456                             : :Chapter 7
00:23:31.016                             : :Chapter 8
00:26:18.856                             : :Chapter 9
00:29:03.496                             : :Chapter 10
00:32:14.216                             : :Chapter 11
00:37:52.856                             : :Chapter 12
00:42:14.696                             : :Chapter 13
00:46:54.776                             : :Chapter 14
00:50:26.856                             : :Chapter 15
00:54:33.136                             : :Chapter 16
00:57:59.816                             : :Chapter 17
01:00:46.016                             : :Chapter 18
01:02:40.656                             : :Chapter 19
01:06:45.856                             : :Chapter 20
01:09:49.736                             : :Chapter 21
01:14:14.456                             : :Chapter 22
01:17:42.056                             : :Chapter 23
01:20:11.096                             : :Chapter 24
01:23:52.296                             : :Chapter 25
01:29:16.856                             : :Chapter 26
01:33:19.536                             : :Chapter 27
01:37:03.896                             : :Chapter 28
01:41:15.816                             : :Chapter 29
01:42:58.736                             : :Chapter 30
01:46:14.256                             : :Chapter 31
01:51:41.496                             : :Chapter 32
01:53:59.816                             : :Chapter 33
01:57:05.416                             : :Chapter 34
01:59:07.056                             : :Chapter 35
02:04:45.096                             : :Chapter 36
02:06:41.896                             : :Chapter 37
02:10:09.056                             : :Chapter 38
02:13:11.856                             : :Chapter 39
02:17:05.216                             : :Chapter 40
02:19:08.376                             : :Chapter 41
02:22:02.016                             : :Chapter 42
02:24:55.256                             : :Chapter 43
02:26:42.096                             : :Chapter 44

[/spoiler]





Info: Per scaricare devi usare un client come uTorrent o Transmission
AnnounceURL
udp://tracker.coppersurfer.tk:6969/announce
Hash f531f2a9b57e06d0cd01a1187bc2220c10f1f63d
Peers seeds: 32 , leech: 22
Size 2.37 GB
Completato 677x
Aggiunto 10.12.16 - 21:12:35
Uploader   BaMax71
Votazione (Voti: 0)


Condividi questo bittorrent:


html/blog:


bbcode/forum:




Aggiungi Commento


counter