* Dettagli Torrent   globale  | Commenti (0) 


- Gli.Intoccabili.The.Untouchables.(1987).H264.Ita.Eng.Fra.Spa.Ac3.5.1.multi.sub.iCV-MIRCrew -


Download via torrent:
Categoria bittorrent BDRip
Descrizione
Gli.Intoccabili.The.Untouchables.(1987).H264.Ita.Eng.Fra.Spa.Ac3.5.1.multi.sub.iCV-MIRCrew

[color=red][b]
NO FOUND ONLY ORIGINAL RELEASE





For select audio use VLC or dvd player home

[size=36pt]Gli Intoccabili
The Untouchables
+EXTRA BONUS

(1987)[/size]









   DATA USCITA: 1987
   GENERE: Drammatico
   REGIA: Brian De Palma
   SCENEGGIATURA: David Mamet
   FOTOGRAFIA: Stephen H. Burum
   MONTAGGIO: Gerald B. Greenberg, Bill Pankow
   MUSICHE: Ennio Morricone
   PRODUZIONE: ART LINSON PER PARAMOUNT PICTURES
   PAESE: USA
   DURATA: 116 Min



Kevin Costner, Sean Connery, Charles Martin Smith, Andy Garcia, Robert De Niro, Richard Bradford, Jack Kehoe, Brad Sullivan, Billy Drago, Patricia Clarkson, Steven Goldstein, Peter Aylward, Don Harvey, Robert Swan, Vito D'Ambrosio



A Chicago nel 1930, durante il Proibizionismo, Al Capone domina ormai incontrastato la malavita, avendo sterminato senza pietà le bande rivali e seminando il terrore nella città con le sue crudeli vendette. Il commercio clandestino degli alcolici, sua principale attività, è per lui una fonte di guadagno enorme e, per mantenerne l'esclusiva, egli non solo usa ogni sorta di violenze, ma si serve della corruzione su vasta scala, che gli consente di avere complici e spie perfino fra le autorità cittadine e la stessa polizia. Eliot Ness, un giovane agente del Dipartimento del tesoro, viene incaricato di stroncare la sua illecita attività. Egli, diffidando di tutti, si sceglie come aiuto soltanto tre uomini sicuri, incorruttibili, determinati: Jimmy Malone, un anziano poliziotto irlandese duro ed esperto; George Stone, un giovane oriundo italiano, e Oscar Wallace, un contabile incaricato di indagare nei conti di Capone.



In Chicago in 1930, during Prohibition, Al Capone now dominates the underworld, having broke it and rival gangs terrorizing the city with its cruel revenge. The illegal trade of alcohol, its main business, for him is a huge source of income and, to maintain its exclusivity, he not only uses all sorts of violence, but makes use of large-scale corruption, which allows him to have accomplices and spies even among the towns and the same police authorities. Eliot Ness, a young agent of the Treasury Department is dispatched to crush his illegal activity. He, distrusting of all, you choose how to help only three men safe, incorruptible, certain: Jimmy Malone, a senior and experienced tough Irish cop; George Stone, a young Italian immigrant, and Oscar Wallace, an accounting charge of investigating in Capone accounts.













[spoiler]
General
Unique ID                                : 21433294803341358183587506345754089692 (0x101FE7057269878D1FD455DD4B31D8DC)
Complete name                            : Gli.Intoccabili.The.Untouchables.(1987).H264.Ita.Eng.Fra.Spa.Ac3.5.1.multi.sub.iCV-MIRCrew.mkv
Format                                   : Matroska
Format version                           : Version 2
File size                                : 2.19 GiB
Duration                                 : 1 h 54 min
Overall bit rate                         : 2 732 kb/s
FILM : VISIT [url]WWW.ICV-CREW.ORG[/url]
Encoded date                             : UTC 2016-11-12T23:02:17Z
Writing application                      : HandBrake 0.10.5 2016021100
Writing library                          : Lavf55.12.0 / Lavf55.12.0

Video
ID                                       : 1
Format                                   : AVC
Format/Info                              : Advanced Video Codec
Format profile                           : [email protected]
Format settings, CABAC                   : Yes
Format settings, ReFrames                : 4 frames
Codec ID                                 : V_MPEG4/ISO/AVC
Duration                                 : 1 h 54 min
Bit rate                                 : 1 270 kb/s
Width                                    : 720 pixels
Height                                   : 438 pixels
Display aspect ratio                     : 2.35:1
Original display aspect ratio            : 2.35:1
Frame rate mode                          : Constant
Frame rate                               : 25.000 FPS
Color space                              : YUV
Chroma subsampling                       : 4:2:0
Bit depth                                : 8 bits
Scan type                                : Progressive
Bits/(Pixel*Frame)                       : 0.161
Stream size                              : 1.02 GiB (46%)
Writing library                          : x264 core 142 r2479 dd79a61
Encoding settings                        : cabac=1 / ref=1 / deblock=1:0:0 / analyse=0x1:0x111 / me=hex / subme=2 / psy=1 / psy_rd=1.00:0.00 / mixed_ref=0 / me_range=16 / chroma_me=1 / trellis=0 / 8x8dct=0 / cqm=0 / deadzone=21,11 / fast_pskip=1 / chroma_qp_offset=0 / threads=6 / lookahead_threads=2 / sliced_threads=0 / nr=0 / decimate=1 / interlaced=0 / bluray_compat=0 / constrained_intra=0 / bframes=3 / b_pyramid=2 / b_adapt=1 / b_bias=0 / direct=1 / weightb=1 / open_gop=0 / weightp=1 / keyint=250 / keyint_min=25 / scenecut=40 / intra_refresh=0 / rc_lookahead=10 / rc=2pass / mbtree=1 / bitrate=1270 / ratetol=1.0 / qcomp=0.60 / qpmin=0 / qpmax=69 / qpstep=4 / cplxblur=20.0 / qblur=0.5 / vbv_maxrate=20000 / vbv_bufsize=25000 / nal_hrd=none / filler=0 / ip_ratio=1.40 / aq=1:1.00
Default                                  : Yes
Forced                                   : No
Color range                              : Limited
Color primaries                          : BT.601 PAL
Transfer characteristics                 : BT.709
Matrix coefficients                      : BT.601

Audio #1
ID                                       : 2
Format                                   : AC-3
Format/Info                              : Audio Coding 3
Format profile                           : Dolby Digital
Mode extension                           : CM (complete main)
Format settings, Endianness              : Big
Codec ID                                 : A_AC3
Duration                                 : 1 h 54 min
Bit rate mode                            : Constant
Bit rate                                 : 256 kb/s
Channel(s)                               : 2 channels
Channel positions                        : Front: L R
Sampling rate                            : 48.0 kHz
Frame rate                               : 31.250 FPS (1536 spf)
Bit depth                                : 16 bits
Compression mode                         : Lossy
Delay relative to video                  : -5 ms
Stream size                              : 210 MiB (9%)
Title                                    : Stereo
Language                                 : Italian
Default                                  : Yes
Forced                                   : No

Audio #2
ID                                       : 3
Format                                   : AC-3
Format/Info                              : Audio Coding 3
Format profile                           : Dolby Digital
Mode extension                           : CM (complete main)
Format settings, Endianness              : Big
Codec ID                                 : A_AC3
Duration                                 : 1 h 54 min
Bit rate mode                            : Constant
Bit rate                                 : 448 kb/s
Channel(s)                               : 2 channels
Channel positions                        : Front: L R
Sampling rate                            : 48.0 kHz
Frame rate                               : 31.250 FPS (1536 spf)
Bit depth                                : 16 bits
Compression mode                         : Lossy
Delay relative to video                  : -5 ms
Stream size                              : 367 MiB (16%)
Title                                    : Stereo
Language                                 : English
Default                                  : No
Forced                                   : No

Audio #3
ID                                       : 4
Format                                   : AC-3
Format/Info                              : Audio Coding 3
Format profile                           : Dolby Digital
Mode extension                           : CM (complete main)
Format settings, Endianness              : Big
Codec ID                                 : A_AC3
Duration                                 : 1 h 54 min
Bit rate mode                            : Constant
Bit rate                                 : 256 kb/s
Channel(s)                               : 2 channels
Channel positions                        : Front: L R
Sampling rate                            : 48.0 kHz
Frame rate                               : 31.250 FPS (1536 spf)
Bit depth                                : 16 bits
Compression mode                         : Lossy
Delay relative to video                  : -5 ms
Stream size                              : 210 MiB (9%)
Title                                    : Stereo
Language                                 : Spanish
Default                                  : No
Forced                                   : No

Audio #4
ID                                       : 5
Format                                   : AC-3
Format/Info                              : Audio Coding 3
Format profile                           : Dolby Digital
Mode extension                           : CM (complete main)
Format settings, Endianness              : Big
Codec ID                                 : A_AC3
Duration                                 : 1 h 54 min
Bit rate mode                            : Constant
Bit rate                                 : 448 kb/s
Channel(s)                               : 2 channels
Channel positions                        : Front: L R
Sampling rate                            : 48.0 kHz
Frame rate                               : 31.250 FPS (1536 spf)
Bit depth                                : 16 bits
Compression mode                         : Lossy
Delay relative to video                  : -5 ms
Stream size                              : 367 MiB (16%)
Title                                    : Stereo
Language                                 : French
Default                                  : No
Forced                                   : No

Text #1
ID                                       : 6
Format                                   : VobSub
Codec ID                                 : S_VOBSUB
Codec ID/Info                            : Picture based subtitle format used on DVDs
Language                                 : Greek
Default                                  : No
Forced                                   : No

Text #2
ID                                       : 7
Format                                   : VobSub
Codec ID                                 : S_VOBSUB
Codec ID/Info                            : Picture based subtitle format used on DVDs
Language                                 : English
Default                                  : No
Forced                                   : No

Text #3
ID                                       : 8
Format                                   : VobSub
Codec ID                                 : S_VOBSUB
Codec ID/Info                            : Picture based subtitle format used on DVDs
Language                                 : Spanish
Default                                  : No
Forced                                   : No

Text #4
ID                                       : 9
Format                                   : VobSub
Codec ID                                 : S_VOBSUB
Codec ID/Info                            : Picture based subtitle format used on DVDs
Language                                 : French
Default                                  : No
Forced                                   : No

Text #5
ID                                       : 10
Format                                   : VobSub
Codec ID                                 : S_VOBSUB
Codec ID/Info                            : Picture based subtitle format used on DVDs
Default                                  : No
Forced                                   : No

Text #6
ID                                       : 11
Format                                   : VobSub
Codec ID                                 : S_VOBSUB
Codec ID/Info                            : Picture based subtitle format used on DVDs
Language                                 : scr
Default                                  : No
Forced                                   : No

Text #7
ID                                       : 12
Format                                   : VobSub
Codec ID                                 : S_VOBSUB
Codec ID/Info                            : Picture based subtitle format used on DVDs
Language                                 : Italian
Default                                  : No
Forced                                   : No

Text #8
ID                                       : 13
Format                                   : VobSub
Codec ID                                 : S_VOBSUB
Codec ID/Info                            : Picture based subtitle format used on DVDs
Language                                 : Dutch
Default                                  : No
Forced                                   : No

Text #9
ID                                       : 14
Format                                   : VobSub
Codec ID                                 : S_VOBSUB
Codec ID/Info                            : Picture based subtitle format used on DVDs
Language                                 : Portuguese
Default                                  : No
Forced                                   : No

Text #10
ID                                       : 15
Format                                   : VobSub
Codec ID                                 : S_VOBSUB
Codec ID/Info                            : Picture based subtitle format used on DVDs
Language                                 : Slovenian
Default                                  : No
Forced                                   : No

Text #11
ID                                       : 16
Format                                   : VobSub
Codec ID                                 : S_VOBSUB
Codec ID/Info                            : Picture based subtitle format used on DVDs
Language                                 : Serbian
Default                                  : No
Forced                                   : No

Menu
00:00:00.000                             : :Chapter 1
00:02:36.280                             : :Chapter 2
00:06:24.880                             : :Chapter 3
00:07:56.160                             : :Chapter 4
00:10:13.040                             : :Chapter 5
00:15:19.400                             : :Chapter 6
00:18:50.080                             : :Chapter 7
00:22:15.400                             : :Chapter 8
00:28:26.560                             : :Chapter 9
00:32:36.480                             : :Chapter 10
00:34:31.720                             : :Chapter 11
00:39:21.520                             : :Chapter 12
00:41:40.040                             : :Chapter 13
00:45:35.720                             : :Chapter 14
00:59:03.080                             : :Chapter 15
01:05:29.520                             : :Chapter 16
01:14:06.960                             : :Chapter 17
01:15:20.840                             : :Chapter 18
01:18:49.880                             : :Chapter 19
01:22:56.600                             : :Chapter 20
01:32:02.200                             : :Chapter 21
01:35:05.400                             : :Chapter 22
01:42:55.480                             : :Chapter 23
01:50:45.480                             : :Chapter 24

[/spoiler]





Info: Per scaricare devi usare un client come uTorrent o Transmission
AnnounceURL
udp://tracker.coppersurfer.tk:6969/announce
Hash d244f581cd0781afa8c7d851863202fc4428e7e3
Peers seeds: 32 , leech: 12
Size 2.89 GB
Completato 462x
Aggiunto 10.12.16 - 18:12:20
Uploader   BaMax71
Votazione (Voti: 0)


Condividi questo bittorrent:


html/blog:


bbcode/forum:




Aggiungi Commento


counter