* Dettagli Torrent   globale  | Commenti (0) 


- Il.Lupo.(2007).H264.Ita.Ac3.5.1.sub.ita.iCV-MIRCrew -


Download via torrent:
Categoria bittorrent BDRip
Descrizione
Il.Lupo.(2007).H264.Ita.Ac3.5.1.sub.ita.iCV-MIRCrew

[color=red][b]
NO FOUND ONLY ORIGINAL RELEASE





For select audio use VLC or dvd player home

[size=36pt]Il Lupo

(2007)[/size]









   DATA USCITA: 2007
   GENERE: Drammatico
   REGIA: Stefano Calvagna
   SCENEGGIATURA: Stefano Calvagna
   FOTOGRAFIA: Patrizio Patrizi
   MONTAGGIO: Franco Carrozzino
   MUSICHE: Riccardo Della Ragione
   PRODUZIONE: Poker Film
   PAESE: ITA
   DURATA: 90 Min



Massimo Bonetti, Enrico Montesano, Antonella Ponziani, Maurizio Mattioli, Mirco Petrini, Niccolò Calvagna, Christian Marazziti, Claudio Angelini, Patricia Dias Pimentes, Giancarlo Bertolotti, Stefano Pantano, Gianluca Tocci, Gianluca Gunella, Alfonso Saggese, Stefano Calvagna, Isabella Celani, Massimiliano Curcio, Giorgia Liberatore, Alessandro Presutti



Liberamente ispirato alle vicende di Luciano Liboni, Il lupo ripercorre le tappe di un fatto di cronaca nera che ha tenuto col fiato sospeso l’Italia intera. Il protagonista della storia è Franco, un ragazzo timido e con grandi difficoltà nei rapporti sociali. In età adolescenziale viene colpito duramente dalla morte del padre. L’evento genera in lui un malessere diffuso, compreso fino in fondo unicamente da Sara, sua sorella. Al fine di ottenere il denaro necessario per raggiungere l’illusione di una vita spensierata e libera dai fantasmi del passato, Franco si macchia di ripetuti crimini. Al principio piccole rapine, poi aggressioni e traffico di stupefacenti, fino al più grave e feroce dei delitti: l’omicidio di un giovane carabiniere in servizio. Inizia per Franco un lungo periodo di latitanza, in cui avrà l’appoggio di Sara e di un amico d’infanzia, Mauro. Tra azioni mozzafiato, colpi di scena e inseguimenti in una Roma notturna e contraddittoria, la storia di Franco si concluderà tragicamente.



Freely inspired by the story of Luciano Liboni, The wolf retraces the steps of a fact of crime that kept in suspense the whole of Italy. The protagonist of the story is Franco, a shy boy and with great difficulty in social relationships. In adolescence she is hit hard by the death of his father. The event generates in him a general malaise, fully understood only by Sarah, his sister. In order to get the money needed to achieve the illusion of a carefree life free from the ghosts of the past, Franco is guilty of repeated crimes. At the beginning small robberies, assaults and then trafficking in drugs, to the most serious and vicious crimes: the murder of a young policeman on duty. Franco starts a long period of inaction, in which will have the backing of Sarah and a childhood friend, Mauro. Between breathtaking action, twists and chases a night and contradictory Rome, the story of Franco will end tragically.













[spoiler]
General
Unique ID                                : 336714094303716678508972555314092827121 (0xFD50C693BACA49E67730F80FEF1BE1F1)
Complete name                            : Il.Lupo.(2007).H264.Ita.Ac3.5.1.sub.ita.iCV-MIRCrew.mkv
Format                                   : Matroska
Format version                           : Version 2
File size                                : 1.33 GiB
Duration                                 : 1 h 27 min
Overall bit rate                         : 2 173 kb/s
FILM : VISIT [url=WWW.ICV-CREW.ORG]WWW.ICV-CREW.ORG[/url]
Encoded date                             : UTC 2016-11-12T22:21:51Z
Writing application                      : HandBrake 0.10.5 2016021100
Writing library                          : Lavf55.12.0 / Lavf55.12.0

Video
ID                                       : 1
Format                                   : AVC
Format/Info                              : Advanced Video Codec
Format profile                           : [email protected]
Format settings, CABAC                   : Yes
Format settings, ReFrames                : 4 frames
Codec ID                                 : V_MPEG4/ISO/AVC
Duration                                 : 1 h 27 min
Bit rate                                 : 1 270 kb/s
Width                                    : 720 pixels
Height                                   : 444 pixels
Display aspect ratio                     : 2.35:1
Frame rate mode                          : Constant
Frame rate                               : 25.000 FPS
Color space                              : YUV
Chroma subsampling                       : 4:2:0
Bit depth                                : 8 bits
Scan type                                : Progressive
Bits/(Pixel*Frame)                       : 0.159
Stream size                              : 773 MiB (57%)
Writing library                          : x264 core 142 r2479 dd79a61
Encoding settings                        : cabac=1 / ref=1 / deblock=1:0:0 / analyse=0x1:0x111 / me=hex / subme=2 / psy=1 / psy_rd=1.00:0.00 / mixed_ref=0 / me_range=16 / chroma_me=1 / trellis=0 / 8x8dct=0 / cqm=0 / deadzone=21,11 / fast_pskip=1 / chroma_qp_offset=0 / threads=6 / lookahead_threads=2 / sliced_threads=0 / nr=0 / decimate=1 / interlaced=0 / bluray_compat=0 / constrained_intra=0 / bframes=3 / b_pyramid=2 / b_adapt=1 / b_bias=0 / direct=1 / weightb=1 / open_gop=0 / weightp=1 / keyint=250 / keyint_min=25 / scenecut=40 / intra_refresh=0 / rc_lookahead=10 / rc=2pass / mbtree=1 / bitrate=1270 / ratetol=1.0 / qcomp=0.60 / qpmin=0 / qpmax=69 / qpstep=4 / cplxblur=20.0 / qblur=0.5 / vbv_maxrate=20000 / vbv_bufsize=25000 / nal_hrd=none / filler=0 / ip_ratio=1.40 / aq=1:1.00
Default                                  : Yes
Forced                                   : No
Color range                              : Limited
Color primaries                          : BT.601 PAL
Transfer characteristics                 : BT.709
Matrix coefficients                      : BT.601

Audio #1
ID                                       : 2
Format                                   : AC-3
Format/Info                              : Audio Coding 3
Format profile                           : Dolby Digital
Mode extension                           : CM (complete main)
Format settings, Endianness              : Big
Codec ID                                 : A_AC3
Duration                                 : 1 h 27 min
Bit rate mode                            : Constant
Bit rate                                 : 448 kb/s
Channel(s)                               : 2 channels
Channel positions                        : Front: L R
Sampling rate                            : 48.0 kHz
Frame rate                               : 31.250 FPS (1536 spf)
Bit depth                                : 16 bits
Compression mode                         : Lossy
Delay relative to video                  : -5 ms
Stream size                              : 281 MiB (21%)
Title                                    : Stereo
Language                                 : Italian
Default                                  : Yes
Forced                                   : No

Audio #2
ID                                       : 3
Format                                   : AC-3
Format/Info                              : Audio Coding 3
Format profile                           : Dolby Digital
Mode extension                           : CM (complete main)
Format settings, Endianness              : Big
Codec ID                                 : A_AC3
Duration                                 : 1 h 27 min
Bit rate mode                            : Constant
Bit rate                                 : 448 kb/s
Channel(s)                               : 2 channels
Channel positions                        : Front: L R
Sampling rate                            : 48.0 kHz
Frame rate                               : 31.250 FPS (1536 spf)
Bit depth                                : 16 bits
Compression mode                         : Lossy
Delay relative to video                  : -5 ms
Stream size                              : 281 MiB (21%)
Title                                    : Stereo
Language                                 : Italian
Default                                  : No
Forced                                   : No

Text
ID                                       : 4
Format                                   : VobSub
Codec ID                                 : S_VOBSUB
Codec ID/Info                            : Picture based subtitle format used on DVDs
Language                                 : Italian
Default                                  : No
Forced                                   : No

Menu
00:00:00.000                             : :Chapter 1
00:05:12.200                             : :Chapter 2
00:09:09.560                             : :Chapter 3
00:13:48.280                             : :Chapter 4
00:19:15.520                             : :Chapter 5
00:24:22.080                             : :Chapter 6
00:29:01.880                             : :Chapter 7
00:32:59.520                             : :Chapter 8
00:37:30.880                             : :Chapter 9
00:42:08.160                             : :Chapter 10
00:47:55.760                             : :Chapter 11
00:52:38.920                             : :Chapter 12
00:56:43.000                             : :Chapter 13
01:00:24.200                             : :Chapter 14
01:03:43.640                             : :Chapter 15
01:07:45.280                             : :Chapter 16
01:12:49.400                             : :Chapter 17
01:15:47.160                             : :Chapter 18
01:20:18.040                             : :Chapter 19
01:24:37.880                             : :Chapter 20

[/spoiler]





Info: Per scaricare devi usare un client come uTorrent o Transmission
AnnounceURL
udp://tracker.coppersurfer.tk:6969/announce
Hash bb0292e705f85fd9cc86f3bc67dec60212a3d583
Peers seeds: 25 , leech: 16
Size 1.33 GB
Completato 497x
Aggiunto 06.12.16 - 09:12:49
Uploader   BaMax71
Votazione (Voti: 1)


Condividi questo bittorrent:


html/blog:


bbcode/forum:




Aggiungi Commento


counter