* Dettagli Torrent   globale  | Commenti (0) 


- Rambo.First.Blood.(1982).H264.Ita.Eng.Spa.Ger.Ac3.2.0.multi.sub.iCV-MIRCrew -


Download via torrent:
Categoria bittorrent BDRip
Descrizione
Rambo.First.Blood.(1982).H264.Ita.Eng.Spa.Ger.Ac3.2.0.multi.sub.iCV-MIRCrew

[color=red][b]
NO FOUND ONLY ORIGINAL RELEASE





For select audio use VLC or dvd player home

[size=36pt]Rambo First Blood

(1982)[/size]









   DATA USCITA: 1982
   GENERE: Drammatico
   REGIA: Ted Kotcheff
   SCENEGGIATURA: Michael Kozoll, Sylvester Stallone, William Sackheim
   FOTOGRAFIA: Andrew Laszlo
   MONTAGGIO: Joan E. Chapman
   MUSICHE: Jerry Goldsmith
   PRODUZIONE: Anabasis Investmens, Carolco Pictures
   PAESE: USA
   DURATA: 88 Min



Sylvester Stallone, Richard Crenna, Brian Dennehy, Bill McKinney, Jack Starrett, Michael Talbott, Chris Mulkey, John McLiam, David Petersen, Don MacKay, Patrick Stack, David Caruso, Chuck Tamburro, Craig Wright Huston



Giunto in una cittadina del Nord alla ricerca di un ex commilitone del Vietnam, l'eroe di guerra John Rambo è arrestato per vagabondaggio da un arrogante sceriffo. Ribellatosi alla sua brutalità, Rambo fugge sulle montagne e viene braccato dai poliziotti. La sua perfetta preparazione militare gli consente di tenere in scacco oltre duecento uomini della Guardia Nazionale.



Arrived in a northern town in search of a former comrade of Vietnam, the war hero John Rambo is arrested for vagrancy by an arrogant sheriff. Rebelled to his brutality, Rambo escapes over the mountains and is hunted by police. His perfect military training allows them to keep in check over two hundred National Guardsmen.













[spoiler]
General
Unique ID                                : 12500215578279992133795435540031373088 (0x9677436064E8AFF3ED232FF6F3E7F20)
Complete name                            : Rambo.First.Blood.(1982).H264.Ita.Eng.Spa.Ger.Ac3.2.0.multi.sub.iCV-MIRCrew.mkv
Format                                   : Matroska
Format version                           : Version 2
File size                                : 1.45 GiB
Duration                                 : 1 h 29 min
Overall bit rate                         : 2 319 kb/s
FILM : VISIT [url=WWW.ICV-CREW.ORG]WWW.ICV-CREW.ORG[/url]
Encoded date                             : UTC 2016-11-17T22:33:52Z
Writing application                      : HandBrake 0.10.5 2016021100
Writing library                          : Lavf55.12.0 / Lavf55.12.0

Video
ID                                       : 1
Format                                   : AVC
Format/Info                              : Advanced Video Codec
Format profile                           : [email protected]
Format settings, CABAC                   : Yes
Format settings, ReFrames                : 4 frames
Codec ID                                 : V_MPEG4/ISO/AVC
Duration                                 : 1 h 29 min
Bit rate                                 : 1 270 kb/s
Width                                    : 720 pixels
Height                                   : 446 pixels
Display aspect ratio                     : 2.35:1
Frame rate mode                          : Constant
Frame rate                               : 25.000 FPS
Color space                              : YUV
Chroma subsampling                       : 4:2:0
Bit depth                                : 8 bits
Scan type                                : Progressive
Bits/(Pixel*Frame)                       : 0.158
Stream size                              : 798 MiB (54%)
Writing library                          : x264 core 142 r2479 dd79a61
Encoding settings                        : cabac=1 / ref=1 / deblock=1:0:0 / analyse=0x1:0x111 / me=hex / subme=2 / psy=1 / psy_rd=1.00:0.00 / mixed_ref=0 / me_range=16 / chroma_me=1 / trellis=0 / 8x8dct=0 / cqm=0 / deadzone=21,11 / fast_pskip=1 / chroma_qp_offset=0 / threads=6 / lookahead_threads=2 / sliced_threads=0 / nr=0 / decimate=1 / interlaced=0 / bluray_compat=0 / constrained_intra=0 / bframes=3 / b_pyramid=2 / b_adapt=1 / b_bias=0 / direct=1 / weightb=1 / open_gop=0 / weightp=1 / keyint=250 / keyint_min=25 / scenecut=40 / intra_refresh=0 / rc_lookahead=10 / rc=2pass / mbtree=1 / bitrate=1270 / ratetol=1.0 / qcomp=0.60 / qpmin=0 / qpmax=69 / qpstep=4 / cplxblur=20.0 / qblur=0.5 / vbv_maxrate=20000 / vbv_bufsize=25000 / nal_hrd=none / filler=0 / ip_ratio=1.40 / aq=1:1.00
Default                                  : Yes
Forced                                   : No
Color range                              : Limited
Color primaries                          : BT.601 PAL
Transfer characteristics                 : BT.709
Matrix coefficients                      : BT.601

Audio #1
ID                                       : 2
Format                                   : AC-3
Format/Info                              : Audio Coding 3
Format profile                           : Dolby Digital
Mode extension                           : CM (complete main)
Format settings, Endianness              : Big
Codec ID                                 : A_AC3
Duration                                 : 1 h 29 min
Bit rate mode                            : Constant
Bit rate                                 : 256 kb/s
Channel(s)                               : 2 channels
Channel positions                        : Front: L R
Sampling rate                            : 48.0 kHz
Frame rate                               : 31.250 FPS (1536 spf)
Bit depth                                : 16 bits
Compression mode                         : Lossy
Delay relative to video                  : -5 ms
Stream size                              : 164 MiB (11%)
Title                                    : Stereo
Language                                 : English
Default                                  : Yes
Forced                                   : No

Audio #2
ID                                       : 3
Format                                   : AC-3
Format/Info                              : Audio Coding 3
Format profile                           : Dolby Digital
Mode extension                           : CM (complete main)
Format settings, Endianness              : Big
Codec ID                                 : A_AC3
Duration                                 : 1 h 29 min
Bit rate mode                            : Constant
Bit rate                                 : 256 kb/s
Channel(s)                               : 2 channels
Channel positions                        : Front: L R
Sampling rate                            : 48.0 kHz
Frame rate                               : 31.250 FPS (1536 spf)
Bit depth                                : 16 bits
Compression mode                         : Lossy
Delay relative to video                  : -5 ms
Stream size                              : 164 MiB (11%)
Title                                    : Stereo
Language                                 : German
Default                                  : No
Forced                                   : No

Audio #3
ID                                       : 4
Format                                   : AC-3
Format/Info                              : Audio Coding 3
Mode extension                           : CM (complete main)
Format settings, Endianness              : Big
Codec ID                                 : A_AC3
Duration                                 : 1 h 29 min
Bit rate mode                            : Constant
Bit rate                                 : 256 kb/s
Channel(s)                               : 2 channels
Channel positions                        : Front: L R
Sampling rate                            : 48.0 kHz
Frame rate                               : 31.250 FPS (1536 spf)
Bit depth                                : 16 bits
Compression mode                         : Lossy
Delay relative to video                  : -5 ms
Stream size                              : 164 MiB (11%)
Title                                    : Stereo
Language                                 : Italian
Default                                  : No
Forced                                   : No

Audio #4
ID                                       : 5
Format                                   : AC-3
Format/Info                              : Audio Coding 3
Format profile                           : Dolby Digital
Mode extension                           : CM (complete main)
Format settings, Endianness              : Big
Codec ID                                 : A_AC3
Duration                                 : 1 h 29 min
Bit rate mode                            : Constant
Bit rate                                 : 256 kb/s
Channel(s)                               : 2 channels
Channel positions                        : Front: L R
Sampling rate                            : 48.0 kHz
Frame rate                               : 31.250 FPS (1536 spf)
Bit depth                                : 16 bits
Compression mode                         : Lossy
Delay relative to video                  : -5 ms
Stream size                              : 164 MiB (11%)
Title                                    : Stereo
Language                                 : Spanish
Default                                  : No
Forced                                   : No

Text #1
ID                                       : 6
Format                                   : VobSub
Codec ID                                 : S_VOBSUB
Codec ID/Info                            : Picture based subtitle format used on DVDs
Language                                 : English
Default                                  : No
Forced                                   : No

Text #2
ID                                       : 7
Format                                   : VobSub
Codec ID                                 : S_VOBSUB
Codec ID/Info                            : Picture based subtitle format used on DVDs
Language                                 : German
Default                                  : No
Forced                                   : No

Text #3
ID                                       : 8
Format                                   : VobSub
Codec ID                                 : S_VOBSUB
Codec ID/Info                            : Picture based subtitle format used on DVDs
Language                                 : Italian
Default                                  : No
Forced                                   : No

Text #4
ID                                       : 9
Format                                   : VobSub
Codec ID                                 : S_VOBSUB
Codec ID/Info                            : Picture based subtitle format used on DVDs
Language                                 : Spanish
Default                                  : No
Forced                                   : No

Text #5
ID                                       : 10
Format                                   : VobSub
Codec ID                                 : S_VOBSUB
Codec ID/Info                            : Picture based subtitle format used on DVDs
Language                                 : Portuguese
Default                                  : No
Forced                                   : No

Text #6
ID                                       : 11
Format                                   : VobSub
Codec ID                                 : S_VOBSUB
Codec ID/Info                            : Picture based subtitle format used on DVDs
Language                                 : Turkish
Default                                  : No
Forced                                   : No

Menu
00:00:00.000                             : :Chapter 1
00:04:31.880                             : :Chapter 2
00:09:28.840                             : :Chapter 3
00:12:14.680                             : :Chapter 4
00:14:24.160                             : :Chapter 5
00:21:50.720                             : :Chapter 6
00:30:52.520                             : :Chapter 7
00:32:38.080                             : :Chapter 8
00:35:44.440                             : :Chapter 9
00:40:27.480                             : :Chapter 10
00:46:37.240                             : :Chapter 11
00:51:41.960                             : :Chapter 12
00:55:57.680                             : :Chapter 13
01:00:05.320                             : :Chapter 14
01:05:13.720                             : :Chapter 15
01:10:27.120                             : :Chapter 16
01:19:22.240                             : :Chapter 17
01:22:50.280                             : :Chapter 18
01:25:30.840                             : :Chapter 19
01:26:06.360                             : :Chapter 20

[/spoiler]





Info: Per scaricare devi usare un client come uTorrent o Transmission
AnnounceURL
udp://tracker.coppersurfer.tk:6969/announce
Hash 68eafb94256c0ef05fe5ee6517f3c0497f824228
Peers seeds: 25 , leech: 11
Size 1.45 GB
Completato 429x
Aggiunto 06.12.16 - 09:12:45
Uploader   BaMax71
Votazione (Voti: 0)


Condividi questo bittorrent:


html/blog:


bbcode/forum:




Aggiungi Commento


counter