* Dettagli Torrent   globale  | Commenti (0) 


- Squadra.Volante.(1974).H264.Ita.Eng.Ac3.5.1.sub.ita.iCV-MIRCrew -


Download via torrent:
Categoria bittorrent BDRip
Descrizione
Squadra.Volante.(1974).H264.Ita.Eng.Ac3.5.1.sub.ita.iCV-MIRCrew

[color=red][b]
NO FOUND ONLY ORIGINAL RELEASE





For select audio use VLC or dvd player home

[size=36pt]Squadra Volante

(1974)[/size]









   DATA USCITA: 1974
   GENERE: Azione
   REGIA: Stelvio Massi
   SCENEGGIATURA: Dardano Sacchetti, Adriano Bolzoni, Gianfranco Barberi, Stelvio Massi
   FOTOGRAFIA: Sergio Rubini (II)
   MONTAGGIO: Mauro Bonanni
   MUSICHE: Stelvio Cipriani
   PRODUZIONE: CBA DISTRIBUTORI ASSOCIATI
   PAESE: ITA
   DURATA: 90 Min



Tomas Milian, Gastone Moschin, Ray Lovelock, Mario Carotenuto, Stefania Casini, Guido Leontini, Ilaria Guerrini, Giuseppe Castellano, Gabriella Cotignoli, Fabrizio Mazzotti, Nino Curatola, Marcello Venditti



In piena Pavia, la banda del "Marsigliese" ha effettuato con successo una grossa rapina, lasciando a terra, tra l'altro, il cadavere di un poliziotto. Nonostante le ostilità nei sui confronti da parte dell'ispettore Calò, che non ne approva i metodi troppo drastici, si immerge nelle indagini Tomas Ravelli, agente già da tempo trasferito all'Interpol. Il duro poliziotto da cinque anni attende di poter vendicare la morte della moglie, avvenuta solo un anno dopo il matrimonio, a Marsiglia, nel corso di una analoga rapina ad una banca. Con l'aiuto del fedele brigadiere Lavagni, messo alle sue calcagna da Calò per controllarlo, Tomas ben presto mette alle corde il Marsigliese che è effettivamente l'assassino della moglie del poliziotto. La piccola banda, non appena iniziano le difficoltà, si frantuma e perde diversi uomini. Seguendo la pista dei cadaveri e delle armi, Ravelli costringe il Marsigliese a precipitare la fuga verso il Po dove lo attende Mizar, un tunisino. Raggiunto l'avversario, per meglio consumare la propria vendetta, Ravelli straccia la tessera di poliziotto. E' il momento della resa dei conti.



Pavia in full, the band of the "Marseillaise" has successfully carried out a big robbery, leaving on the ground, among other things, the corpse of a policeman. Despite the hostility on comparisons by the inspector Calo, who do not endorse the methods too drastic, it dives in the investigation Tomas Ravelli, agent for some time transferred to Interpol. The tough cop for five years waiting to be able to avenge the death of his wife, which occurred only a year after the wedding, in Marseille, during a similar robbery at a bank. With the help of the faithful brigadier Lavagni, he puts on his heels by Calo to control it, soon Tomas puts on the ropes the Marseillaise, which is actually the murderess of the wife of the policeman. The small band, as soon as the difficulties begin, it shatters and lost several men. Following the trail of dead bodies and weapons, Ravelli forces the Marseillaise to fall escape to the Po, where awaits him Mizar, a Tunisian. Reached the opponent, the better to consume his revenge, Ravelli waste the cop card. And 'the moment of reckoning.













[spoiler]
General
Unique ID                                : 115569375067097314856969546987659135241 (0x56F1DA1D4CD42926B12818CC70190909)
Complete name                            : Squadra.Volante.(1974).H264.Ita.Eng.Ac3.5.1.sub.ita.iCV-MIRCrew.mkv
Format                                   : Matroska
Format version                           : Version 2
File size                                : 1.42 GiB
Duration                                 : 1 h 30 min
Overall bit rate                         : 2 241 kb/s
FILM : VISIT [url]WWW.ICV-CREW.ORG[/url]
Encoded date                             : UTC 2016-11-13T12:58:46Z
Writing application                      : HandBrake 0.10.5 2016021100
Writing library                          : Lavf55.12.0 / Lavf55.12.0

Video
ID                                       : 1
Format                                   : AVC
Format/Info                              : Advanced Video Codec
Format profile                           : [email protected]
Format settings, CABAC                   : Yes
Format settings, ReFrames                : 4 frames
Codec ID                                 : V_MPEG4/ISO/AVC
Duration                                 : 1 h 30 min
Bit rate                                 : 1 270 kb/s
Width                                    : 720 pixels
Height                                   : 556 pixels
Display aspect ratio                     : 1.85:1
Original display aspect ratio            : 1.85:1
Frame rate mode                          : Constant
Frame rate                               : 25.000 FPS
Color space                              : YUV
Chroma subsampling                       : 4:2:0
Bit depth                                : 8 bits
Scan type                                : Progressive
Bits/(Pixel*Frame)                       : 0.127
Stream size                              : 804 MiB (55%)
Writing library                          : x264 core 142 r2479 dd79a61
Encoding settings                        : cabac=1 / ref=1 / deblock=1:0:0 / analyse=0x1:0x111 / me=hex / subme=2 / psy=1 / psy_rd=1.00:0.00 / mixed_ref=0 / me_range=16 / chroma_me=1 / trellis=0 / 8x8dct=0 / cqm=0 / deadzone=21,11 / fast_pskip=1 / chroma_qp_offset=0 / threads=6 / lookahead_threads=2 / sliced_threads=0 / nr=0 / decimate=1 / interlaced=0 / bluray_compat=0 / constrained_intra=0 / bframes=3 / b_pyramid=2 / b_adapt=1 / b_bias=0 / direct=1 / weightb=1 / open_gop=0 / weightp=1 / keyint=250 / keyint_min=25 / scenecut=40 / intra_refresh=0 / rc_lookahead=10 / rc=2pass / mbtree=1 / bitrate=1270 / ratetol=1.0 / qcomp=0.60 / qpmin=0 / qpmax=69 / qpstep=4 / cplxblur=20.0 / qblur=0.5 / vbv_maxrate=20000 / vbv_bufsize=25000 / nal_hrd=none / filler=0 / ip_ratio=1.40 / aq=1:1.00
Default                                  : Yes
Forced                                   : No
Color range                              : Limited
Color primaries                          : BT.601 PAL
Transfer characteristics                 : BT.709
Matrix coefficients                      : BT.601

Audio #1
ID                                       : 2
Format                                   : AC-3
Format/Info                              : Audio Coding 3
Format profile                           : Dolby Digital
Mode extension                           : CM (complete main)
Format settings, Endianness              : Big
Codec ID                                 : A_AC3
Duration                                 : 1 h 30 min
Bit rate mode                            : Constant
Bit rate                                 : 448 kb/s
Channel(s)                               : 2 channels
Channel positions                        : Front: L R
Sampling rate                            : 48.0 kHz
Frame rate                               : 31.250 FPS (1536 spf)
Bit depth                                : 16 bits
Compression mode                         : Lossy
Delay relative to video                  : -5 ms
Stream size                              : 291 MiB (20%)
Title                                    : Stereo
Language                                 : Italian
Default                                  : Yes
Forced                                   : No

Audio #2
ID                                       : 3
Format                                   : AC-3
Format/Info                              : Audio Coding 3
Mode extension                           : CM (complete main)
Format settings, Endianness              : Big
Codec ID                                 : A_AC3
Duration                                 : 1 h 30 min
Bit rate mode                            : Constant
Bit rate                                 : 256 kb/s
Channel(s)                               : 2 channels
Channel positions                        : Front: L R
Sampling rate                            : 48.0 kHz
Frame rate                               : 31.250 FPS (1536 spf)
Bit depth                                : 16 bits
Compression mode                         : Lossy
Delay relative to video                  : -5 ms
Stream size                              : 166 MiB (11%)
Title                                    : Stereo
Language                                 : Italian
Default                                  : No
Forced                                   : No

Audio #3
ID                                       : 4
Format                                   : AC-3
Format/Info                              : Audio Coding 3
Mode extension                           : CM (complete main)
Format settings, Endianness              : Big
Codec ID                                 : A_AC3
Duration                                 : 1 h 30 min
Bit rate mode                            : Constant
Bit rate                                 : 256 kb/s
Channel(s)                               : 2 channels
Channel positions                        : Front: L R
Sampling rate                            : 48.0 kHz
Frame rate                               : 31.250 FPS (1536 spf)
Bit depth                                : 16 bits
Compression mode                         : Lossy
Delay relative to video                  : -5 ms
Stream size                              : 166 MiB (11%)
Title                                    : Stereo
Language                                 : English
Default                                  : No
Forced                                   : No

Text
ID                                       : 5
Format                                   : VobSub
Codec ID                                 : S_VOBSUB
Codec ID/Info                            : Picture based subtitle format used on DVDs
Language                                 : Italian
Default                                  : No
Forced                                   : No

Menu
00:00:00.000                             : :Chapter 1
00:05:08.640                             : :Chapter 2
00:16:23.280                             : :Chapter 3
00:29:04.320                             : :Chapter 4
00:35:27.000                             : :Chapter 5
00:49:59.520                             : :Chapter 6
00:58:41.040                             : :Chapter 7
01:06:28.680                             : :Chapter 8
01:12:03.360                             : :Chapter 9
01:17:12.480                             : :Chapter 10
01:22:25.200                             : :Chapter 11
01:25:51.000                             : :Chapter 12

[/spoiler]





Info: Per scaricare devi usare un client come uTorrent o Transmission
AnnounceURL
udp://tracker.coppersurfer.tk:6969/announce
Hash 56199936c4576ca2aa4e63a6a4a50c18c52e96d7
Peers seeds: 18 , leech: 3
Size 1.42 GB
Completato 314x
Aggiunto 04.12.16 - 18:12:24
Uploader   BaMax71
Votazione (Voti: 0)


Condividi questo bittorrent:


html/blog:


bbcode/forum:




Aggiungi Commento


counter