* Dettagli Torrent   globale  | Commenti (1) 


- Million.Dollar.Baby.(2005).H264.Ita.Eng.Ac3.5.1.sub.ita.eng.iCV-MIRCrew -


Download via torrent:
Categoria bittorrent BDRip
Descrizione
Million.Dollar.Baby.(2005).H264.Ita.Eng.Ac3.5.1.sub.ita.eng.iCV-MIRCrew

[color=red][b]
NO FOUND ONLY ORIGINAL RELEASE





For select audio use VLC or dvd player home

[size=36pt]Million Dollar Baby
+ EXTRA BONUS

(2005)[/size]









   DATA USCITA: 2005
   GENERE: Drammatico
   REGIA: Clint Eastwood
   SCENEGGIATURA: Paul Haggis
   FOTOGRAFIA: Tom Stern
   MONTAGGIO: Joel Cox
   MUSICHE: Clint Eastwood
   PRODUZIONE: Malpaso Productions, Lakeshore Entertainment, Ruddy Productions, Warner Bros. Pictures
   PAESE: USA
   DURATA: 137 Min



Clint Eastwood, Hilary Swank, Morgan Freeman, Jay Baruchel, Mike Colter, Lucia Rijker, Anthony Mackie, Margo Martindale, Riki Lindhome, Michael Peña, Benito Martinez, Bruce MacVittie, David Powledge, Joe D'Angerio, Marcus Chait, Ned Eisenberg, Tom McCleister, Morgan Eastwood



Nel corso di una vita passata sul ring, Frankie Dunn è stato allenatore e manager di alcuni pugili straordinari. La cosa più importante che insegna ai suoi pugili è la stessa che governa la sua vita: prima di tutto, proteggere se stessi. In seguito alla dolorosa rottura con sua figlia, Frankie ha sempre evitato di affezionarsi troppo a qualcuno. Il suo unico amico è Scrap, un ex-pugile che manda avanti la palestra e sa che sotto quella scorza ruvida c'è un uomo che va a messa quasi tutti i giorni da 23 anni, cercando un perdono che in qualche modo continua a sfuggirgli. Finchè Maggie Fitzgerald non entra nella sua palestra...



During a lifetime spent in the ring, Frankie Dunn was trainer and manager of some extraordinary boxers. The most important thing that he teaches his boxers is the same that governs his life: first of all, protect yourself. Following a painful breakup with his daughter, Frankie has always avoided too attached to someone. His only friend is Scrap, an ex-boxer who sends the gym ahead and knows that beneath that rough exterior is a man who goes to Mass almost every day for 23 years, looking for a forgiveness that somehow continues to elude . As long as Maggie Fitzgerald does not fit into his gym ...













[spoiler]
General
Unique ID                                : 320788373594230645334794775501178064065 (0xF15597EC725D3178F3002DF2037ECCC1)
Complete name                            : Million.Dollar.Baby.(2005).H264.Ita.Eng.Ac3.5.1.sub.ita.eng.iCV-MIRCrew.mkv
Format                                   : Matroska
Format version                           : Version 2
File size                                : 2.34 GiB
Duration                                 : 2 h 7 min
Overall bit rate                         : 2 627 kb/s
FILM : VISIT [url]WWW.ICV-CREW.ORG[/url]
Encoded date                             : UTC 2016-11-13T12:07:57Z
Writing application                      : HandBrake 0.10.5 2016021100
Writing library                          : Lavf55.12.0 / Lavf55.12.0

Video
ID                                       : 1
Format                                   : AVC
Format/Info                              : Advanced Video Codec
Format profile                           : [email protected]
Format settings, CABAC                   : Yes
Format settings, ReFrames                : 4 frames
Codec ID                                 : V_MPEG4/ISO/AVC
Duration                                 : 2 h 7 min
Bit rate                                 : 1 270 kb/s
Width                                    : 720 pixels
Height                                   : 428 pixels
Display aspect ratio                     : 2.40:1
Frame rate mode                          : Constant
Frame rate                               : 25.000 FPS
Color space                              : YUV
Chroma subsampling                       : 4:2:0
Bit depth                                : 8 bits
Scan type                                : Progressive
Bits/(Pixel*Frame)                       : 0.165
Stream size                              : 1.09 GiB (47%)
Writing library                          : x264 core 142 r2479 dd79a61
Encoding settings                        : cabac=1 / ref=1 / deblock=1:0:0 / analyse=0x1:0x111 / me=hex / subme=2 / psy=1 / psy_rd=1.00:0.00 / mixed_ref=0 / me_range=16 / chroma_me=1 / trellis=0 / 8x8dct=0 / cqm=0 / deadzone=21,11 / fast_pskip=1 / chroma_qp_offset=0 / threads=6 / lookahead_threads=2 / sliced_threads=0 / nr=0 / decimate=1 / interlaced=0 / bluray_compat=0 / constrained_intra=0 / bframes=3 / b_pyramid=2 / b_adapt=1 / b_bias=0 / direct=1 / weightb=1 / open_gop=0 / weightp=1 / keyint=250 / keyint_min=25 / scenecut=40 / intra_refresh=0 / rc_lookahead=10 / rc=2pass / mbtree=1 / bitrate=1270 / ratetol=1.0 / qcomp=0.60 / qpmin=0 / qpmax=69 / qpstep=4 / cplxblur=20.0 / qblur=0.5 / vbv_maxrate=20000 / vbv_bufsize=25000 / nal_hrd=none / filler=0 / ip_ratio=1.40 / aq=1:1.00
Default                                  : Yes
Forced                                   : No
Color range                              : Limited
Color primaries                          : BT.601 PAL
Transfer characteristics                 : BT.709
Matrix coefficients                      : BT.601

Audio #1
ID                                       : 2
Format                                   : AC-3
Format/Info                              : Audio Coding 3
Format profile                           : Dolby Digital
Mode extension                           : CM (complete main)
Format settings, Endianness              : Big
Codec ID                                 : A_AC3
Duration                                 : 2 h 7 min
Bit rate mode                            : Constant
Bit rate                                 : 448 kb/s
Channel(s)                               : 2 channels
Channel positions                        : Front: L R
Sampling rate                            : 48.0 kHz
Frame rate                               : 31.250 FPS (1536 spf)
Bit depth                                : 16 bits
Compression mode                         : Lossy
Delay relative to video                  : -5 ms
Stream size                              : 408 MiB (17%)
Title                                    : Stereo
Language                                 : Italian
Default                                  : Yes
Forced                                   : No

Audio #2
ID                                       : 3
Format                                   : AC-3
Format/Info                              : Audio Coding 3
Format profile                           : Dolby Digital
Mode extension                           : CM (complete main)
Format settings, Endianness              : Big
Codec ID                                 : A_AC3
Duration                                 : 2 h 7 min
Bit rate mode                            : Constant
Bit rate                                 : 448 kb/s
Channel(s)                               : 2 channels
Channel positions                        : Front: L R
Sampling rate                            : 48.0 kHz
Frame rate                               : 31.250 FPS (1536 spf)
Bit depth                                : 16 bits
Compression mode                         : Lossy
Delay relative to video                  : -5 ms
Stream size                              : 408 MiB (17%)
Title                                    : Stereo
Language                                 : Italian
Default                                  : No
Forced                                   : No

Audio #3
ID                                       : 4
Format                                   : AC-3
Format/Info                              : Audio Coding 3
Format profile                           : Dolby Digital
Mode extension                           : CM (complete main)
Format settings, Endianness              : Big
Codec ID                                 : A_AC3
Duration                                 : 2 h 7 min
Bit rate mode                            : Constant
Bit rate                                 : 448 kb/s
Channel(s)                               : 2 channels
Channel positions                        : Front: L R
Sampling rate                            : 48.0 kHz
Frame rate                               : 31.250 FPS (1536 spf)
Bit depth                                : 16 bits
Compression mode                         : Lossy
Delay relative to video                  : -5 ms
Stream size                              : 408 MiB (17%)
Title                                    : Stereo
Language                                 : English
Default                                  : No
Forced                                   : No

Text #1
ID                                       : 5
Format                                   : VobSub
Codec ID                                 : S_VOBSUB
Codec ID/Info                            : Picture based subtitle format used on DVDs
Language                                 : Italian
Default                                  : No
Forced                                   : No

Text #2
ID                                       : 6
Format                                   : VobSub
Codec ID                                 : S_VOBSUB
Codec ID/Info                            : Picture based subtitle format used on DVDs
Language                                 : English
Default                                  : No
Forced                                   : No

Menu
00:00:00.000                             : :Chapter 1
00:06:38.160                             : :Chapter 2
00:11:20.400                             : :Chapter 3
00:14:05.040                             : :Chapter 4
00:22:23.280                             : :Chapter 5
00:30:48.240                             : :Chapter 6
00:38:05.040                             : :Chapter 7
00:46:56.400                             : :Chapter 8
00:49:47.280                             : :Chapter 9
00:53:55.440                             : :Chapter 10
00:57:05.040                             : :Chapter 11
01:03:52.080                             : :Chapter 12
01:07:09.760                             : :Chapter 13
01:10:01.712                             : :Chapter 14
01:15:21.872                             : :Chapter 15
01:18:23.792                             : :Chapter 16
01:21:38.672                             : :Chapter 17
01:29:32.912                             : :Chapter 18
01:34:18.032                             : :Chapter 19
01:39:25.712                             : :Chapter 20
01:44:09.872                             : :Chapter 21
01:50:27.632                             : :Chapter 22
01:54:49.712                             : :Chapter 23
02:00:54.992                             : :Chapter 24

[/spoiler]





Info: Per scaricare devi usare un client come uTorrent o Transmission
AnnounceURL
udp://tracker.coppersurfer.tk:6969/announce
Hash 96bef908b0185a1146c20aee61f9203fea812706
Peers seeds: 26 , leech: 10
Size 2.95 GB
Completato 387x
Aggiunto 04.12.16 - 17:12:48
Uploader   BaMax71
Votazione (Voti: 3)


Condividi questo bittorrent:


html/blog:


bbcode/forum:




Aggiungi Commento
Ultimi commenti
  
Perfetto V & A 10 grazie
24/04 15.42
Tutti commenti (1)


counter