* Dettagli Torrent   globale  | Commenti (0) 


- I.Soliti.Sospetti.(1995).H264.Ita.Eng.Ac3.2.0.sub.ita.eng.iCV-MIRCrew -


Download via torrent:
Categoria bittorrent BDRip
Descrizione
I.Soliti.Sospetti.(1995).H264.Ita.Eng.Ac3.2.0.sub.ita.eng.iCV-MIRCrew

[color=red][b]
NO FOUND ONLY ORIGINAL RELEASE





For select audio use VLC or dvd player home

[size=36pt]I Soliti Sospetti

(1995)[/size]









   DATA USCITA: 1995
   GENERE: Drammatico
   REGIA: Bryan Singer
   SCENEGGIATURA: Christopher McQuarrie
   FOTOGRAFIA: Newton Thomas Sigel
   MONTAGGIO: John Ottman
   MUSICHE: John Ottman
   PRODUZIONE: BRYAN SINGER, MICHEAL MCDONNELL PER BAD HAT HARRY - BLUE PARROT - GRAMERCY PICTURES - POLYGRAM FILMED ENTERTAINMENT - ROSCO FILM - SPELLING FILMS INTENATIONAL
   PAESE: USA
   DURATA: 105 Min



Gabriel Byrne, Kevin Spacey, Stephen Baldwin, Chazz Palminteri, Kevin Pollak, Pete Postlethwaite, Benicio Del Toro, Giancarlo Esposito, Ron Gilbert, Clark Gregg, Dan Hedaya, Suzy Amis, Paul Bartel, Frank Medrano, Carl Bressler



In California, una nave esplode sul molo di San Pedro: un noto criminale. Dean Keaton, viene ucciso nella stiva da un ignoto dove ha appiccato il fuoco mentre l'equipaggio è stato sterminato. L'unico sopravvissuto alla strage, un delinquente di mezza tacca, lo storpio Verbal Kint, viene interrogato da David Kujan, poliziotto doganale. Verbal rivela che sei settimane prima si era trovato inspiegabilmente in un confronto all'americana con quattro noti criminali: Dean Keaton, ex poliziotto corrotto; il violento McManus col socio di rapine Fenster; lo specialista in esplosivi Todd Hockney. Dall'incontro era nata l'idea di tendere una trappola ad un gruppo di poliziotti corrotti che servendosi di automobili della polizia permettevano a trafficanti di droga e smeraldi di consegnare merce e ritirare soldi. Il colpo riesce e l'organizzazione smantellata. Poi il ricettatore a Los Angeles dà loro un'altra indicazione per rapinare gli smeraldi di un texano. Ma tre uomini restano uccisi e sui quattro criminali si allunga l'ombra di un fantomatico boss, che li ricatta tramite il suo avvocato Kobayashi. Fenster, che vuole dileguarsi, viene trovato morto. I loro dossier sono nelle mani del misterioso Keyser Soze, che tramite l'avvocato ordina loro di uccidere l'equipaggio di una nave di trafficanti rivali argentini, eliminare il carico di droga e tenersi il denaro.



In California, a ship explodes on the dock of San Pedro, a known criminal. Dean Keaton, is killed by an unknown in the hold where he set the fire while the crew was exterminated. The only survivor of the massacre, a middle-notch criminal, the crippled Verbal Kint, is questioned by David Kujan, customs officer. Verbal reveals that six weeks before it was found inexplicably in a lineup with four notorious criminals: Dean Keaton, former corrupt cop; McManus with the violent robbery of Fenster partner; the specialist Todd Hockney explosives. The encounter was born the idea of ??a trap to a group of corrupt cops that using police cars allowed to drug traffickers and emeralds to deliver goods and withdraw money. The coup fails and dismantled the organization. Then the fence in Los Angeles gives them another indication to rob Emeralds of a Texan. But three men are killed and the four criminals lengthens the shadow of a mysterious boss, who blackmails them through his lawyer Kobayashi. Fenster, who wants to vanish, is found dead. Their dossiers are in the hands of the mysterious Keyser Soze, or through the lawyer orders them to kill the crew of a ship of Argentine rival traffickers, eliminate the drug shipment and keep the money.













[spoiler]
General
Unique ID                                : 160363584936999880080742375785032085129 (0x78A4E72C723B0AF26050B4B8F8F06E89)
Complete name                            : I.Soliti.Sospetti.(1995).H264.Ita.Eng.Ac3.2.0.sub.ita.eng.iCV-MIRCrew.mkv
Format                                   : Matroska
Format version                           : Version 2
File size                                : 1.28 GiB
Duration                                 : 1 h 41 min
Overall bit rate                         : 1 803 kb/s
FILM : VISIT [url]WWW.ICV-CREW.ORG[/url]
Encoded date                             : UTC 2016-11-17T19:31:44Z
Writing application                      : HandBrake 0.10.5 2016021100
Writing library                          : Lavf55.12.0 / Lavf55.12.0

Video
ID                                       : 1
Format                                   : AVC
Format/Info                              : Advanced Video Codec
Format profile                           : [email protected]
Format settings, CABAC                   : Yes
Format settings, ReFrames                : 4 frames
Codec ID                                 : V_MPEG4/ISO/AVC
Duration                                 : 1 h 41 min
Bit rate                                 : 1 270 kb/s
Width                                    : 720 pixels
Height                                   : 438 pixels
Display aspect ratio                     : 2.35:1
Frame rate mode                          : Constant
Frame rate                               : 25.000 FPS
Color space                              : YUV
Chroma subsampling                       : 4:2:0
Bit depth                                : 8 bits
Scan type                                : Progressive
Bits/(Pixel*Frame)                       : 0.161
Stream size                              : 915 MiB (70%)
Writing library                          : x264 core 142 r2479 dd79a61
Encoding settings                        : cabac=1 / ref=1 / deblock=1:0:0 / analyse=0x1:0x111 / me=hex / subme=2 / psy=1 / psy_rd=1.00:0.00 / mixed_ref=0 / me_range=16 / chroma_me=1 / trellis=0 / 8x8dct=0 / cqm=0 / deadzone=21,11 / fast_pskip=1 / chroma_qp_offset=0 / threads=6 / lookahead_threads=2 / sliced_threads=0 / nr=0 / decimate=1 / interlaced=0 / bluray_compat=0 / constrained_intra=0 / bframes=3 / b_pyramid=2 / b_adapt=1 / b_bias=0 / direct=1 / weightb=1 / open_gop=0 / weightp=1 / keyint=250 / keyint_min=25 / scenecut=40 / intra_refresh=0 / rc_lookahead=10 / rc=2pass / mbtree=1 / bitrate=1270 / ratetol=1.0 / qcomp=0.60 / qpmin=0 / qpmax=69 / qpstep=4 / cplxblur=20.0 / qblur=0.5 / vbv_maxrate=20000 / vbv_bufsize=25000 / nal_hrd=none / filler=0 / ip_ratio=1.40 / aq=1:1.00
Default                                  : Yes
Forced                                   : No
Color range                              : Limited
Color primaries                          : BT.601 PAL
Transfer characteristics                 : BT.709
Matrix coefficients                      : BT.601

Audio #1
ID                                       : 2
Format                                   : AC-3
Format/Info                              : Audio Coding 3
Mode extension                           : CM (complete main)
Format settings, Endianness              : Big
Codec ID                                 : A_AC3
Duration                                 : 1 h 41 min
Bit rate mode                            : Constant
Bit rate                                 : 256 kb/s
Channel(s)                               : 2 channels
Channel positions                        : Front: L R
Sampling rate                            : 48.0 kHz
Frame rate                               : 31.250 FPS (1536 spf)
Bit depth                                : 16 bits
Compression mode                         : Lossy
Delay relative to video                  : -5 ms
Stream size                              : 187 MiB (14%)
Title                                    : Stereo
Language                                 : Italian
Default                                  : Yes
Forced                                   : No

Audio #2
ID                                       : 3
Format                                   : AC-3
Format/Info                              : Audio Coding 3
Mode extension                           : CM (complete main)
Format settings, Endianness              : Big
Codec ID                                 : A_AC3
Duration                                 : 1 h 41 min
Bit rate mode                            : Constant
Bit rate                                 : 256 kb/s
Channel(s)                               : 2 channels
Channel positions                        : Front: L R
Sampling rate                            : 48.0 kHz
Frame rate                               : 31.250 FPS (1536 spf)
Bit depth                                : 16 bits
Compression mode                         : Lossy
Delay relative to video                  : -5 ms
Stream size                              : 187 MiB (14%)
Title                                    : Stereo
Language                                 : English
Default                                  : No
Forced                                   : No

Text #1
ID                                       : 4
Format                                   : VobSub
Codec ID                                 : S_VOBSUB
Codec ID/Info                            : Picture based subtitle format used on DVDs
Language                                 : Italian
Default                                  : No
Forced                                   : No

Text #2
ID                                       : 5
Format                                   : VobSub
Codec ID                                 : S_VOBSUB
Codec ID/Info                            : Picture based subtitle format used on DVDs
Language                                 : Italian
Default                                  : No
Forced                                   : No

Text #3
ID                                       : 6
Format                                   : VobSub
Codec ID                                 : S_VOBSUB
Codec ID/Info                            : Picture based subtitle format used on DVDs
Language                                 : English
Default                                  : No
Forced                                   : No

Menu
00:00:00.000                             : :Chapter 1
00:16:17.040                             : :Chapter 2
00:25:01.680                             : :Chapter 3
00:34:50.160                             : :Chapter 4
00:41:23.280                             : :Chapter 5
00:49:51.120                             : :Chapter 6
00:56:45.360                             : :Chapter 7
01:02:07.440                             : :Chapter 8
01:10:11.280                             : :Chapter 9
01:19:14.640                             : :Chapter 10
01:26:24.720                             : :Chapter 11
01:33:57.360                             : :Chapter 12

[/spoiler]





Info: Per scaricare devi usare un client come uTorrent o Transmission
AnnounceURL
udp://tracker.coppersurfer.tk:6969/announce
Hash 1a115f26a0d5ca7020fc87bbd66d93c5a1f8bc11
Peers seeds: 32 , leech: 9
Size 1.28 GB
Completato 566x
Aggiunto 04.12.16 - 16:12:12
Uploader   BaMax71
Votazione (Voti: 0)


Condividi questo bittorrent:


html/blog:


bbcode/forum:




Aggiungi Commento


counter