* Dettagli Torrent   globale  | Commenti (0) 


- I.Diari.Della.Motocicletta.(2004).H264.Ita.Eng.Fra.Spa.Ac3.5.1.sub.ita.iCV-MIRCrew -


Download via torrent:
Categoria bittorrent BDRip
Descrizione
I.Diari.Della.Motocicletta.(2004).H264.Ita.Eng.Fra.Spa.Ac3.5.1.sub.ita.iCV-MIRCrew

[color=red][b]
NO FOUND ONLY ORIGINAL RELEASE





For select audio use VLC or dvd player home

[size=36pt]I Diari Della Motocicletta

(2004)[/size]









   DATA USCITA: 2004
   GENERE: Drammatico
   REGIA: Walter Salles
   SCENEGGIATURA: Jose' Rivera
   FOTOGRAFIA: Éric Gautier
   MONTAGGIO: Daniel Rezende
   MUSICHE: Gustavo Santaolalla
   PRODUZIONE: SOUTH FORK PICTURES, FILMFOUR, TU VAS VOIR PRODUCTIONS, SENATOR FILM PRODUKTION
   PAESE: USA, Cile, Argentina, Perù
   DURATA: 126 Min



Gael Garcia Bernal, Rodrigo De La Serna, Mercedes Moran, Jean-Pierre Noher, Susana Lanteri, Mia Maestro, Gustavo Pastorini, Lucas Oro, Marina Glezer



Viaggio attraverso l'America Latina del giovane Ernesto Guevara - era il 1951 e lui a 23 anni era ancora ben lontano dal diventare il 'Che' e dalla rivoluzione cubana - a cavallo della sua moto e in compagnia del suo amico biologo Alberto Granado di nove anni più grande di lui.



Trip through Latin America of the young Ernesto Guevara - was 1951 and he was 23 years old was still far from becoming the 'What' and the Cuban revolution - riding on his motorcycle and in the company of his friend Alberto Granado biologist nine years older than him.













[spoiler]
General
Unique ID                                : 15186925591417045310398284260083854354 (0xB6CE53DE9C19A87D8B5C10D90256C12)
Complete name                            : I.Diari.Della.Motocicletta.(2004).H264.Ita.Eng.Fra.Spa.Ac3.5.1.sub.ita.iCV-MIRCrew.mkv
Format                                   : Matroska
Format version                           : Version 2
File size                                : 1.45 GiB
Duration                                 : 2 h 0 min
Overall bit rate                         : 1 725 kb/s
FILM : VISIT [url]WWW.ICV-CREW.ORG[/url]
Encoded date                             : UTC 2016-11-14T20:15:37Z
Writing application                      : HandBrake 0.10.5 2016021100
Writing library                          : Lavf55.12.0 / Lavf55.12.0

Video
ID                                       : 1
Format                                   : AVC
Format/Info                              : Advanced Video Codec
Format profile                           : [email protected]
Format settings, CABAC                   : Yes
Format settings, ReFrames                : 4 frames
Codec ID                                 : V_MPEG4/ISO/AVC
Duration                                 : 2 h 0 min
Bit rate                                 : 1 270 kb/s
Width                                    : 720 pixels
Height                                   : 566 pixels
Display aspect ratio                     : 16:9
Frame rate mode                          : Constant
Frame rate                               : 25.000 FPS
Color space                              : YUV
Chroma subsampling                       : 4:2:0
Bit depth                                : 8 bits
Scan type                                : Progressive
Bits/(Pixel*Frame)                       : 0.125
Stream size                              : 1.05 GiB (72%)
Writing library                          : x264 core 142 r2479 dd79a61
Encoding settings                        : cabac=1 / ref=1 / deblock=1:0:0 / analyse=0x1:0x111 / me=hex / subme=2 / psy=1 / psy_rd=1.00:0.00 / mixed_ref=0 / me_range=16 / chroma_me=1 / trellis=0 / 8x8dct=0 / cqm=0 / deadzone=21,11 / fast_pskip=1 / chroma_qp_offset=0 / threads=6 / lookahead_threads=2 / sliced_threads=0 / nr=0 / decimate=1 / interlaced=0 / bluray_compat=0 / constrained_intra=0 / bframes=3 / b_pyramid=2 / b_adapt=1 / b_bias=0 / direct=1 / weightb=1 / open_gop=0 / weightp=1 / keyint=250 / keyint_min=25 / scenecut=40 / intra_refresh=0 / rc_lookahead=10 / rc=2pass / mbtree=1 / bitrate=1270 / ratetol=1.0 / qcomp=0.60 / qpmin=0 / qpmax=69 / qpstep=4 / cplxblur=20.0 / qblur=0.5 / vbv_maxrate=20000 / vbv_bufsize=25000 / nal_hrd=none / filler=0 / ip_ratio=1.40 / aq=1:1.00
Default                                  : Yes
Forced                                   : No
Color range                              : Limited
Color primaries                          : BT.601 NTSC
Transfer characteristics                 : BT.709
Matrix coefficients                      : BT.601

Audio
ID                                       : 2
Format                                   : AC-3
Format/Info                              : Audio Coding 3
Format profile                           : Dolby Digital
Mode extension                           : CM (complete main)
Format settings, Endianness              : Big
Codec ID                                 : A_AC3
Duration                                 : 2 h 0 min
Bit rate mode                            : Constant
Bit rate                                 : 448 kb/s
Channel(s)                               : 2 channels
Channel positions                        : Front: L R
Sampling rate                            : 48.0 kHz
Frame rate                               : 31.250 FPS (1536 spf)
Bit depth                                : 16 bits
Compression mode                         : Lossy
Delay relative to video                  : -5 ms
Stream size                              : 387 MiB (26%)
Title                                    : Stereo
Language                                 : Italian
Default                                  : Yes
Forced                                   : No

Text #1
ID                                       : 3
Format                                   : VobSub
Codec ID                                 : S_VOBSUB
Codec ID/Info                            : Picture based subtitle format used on DVDs
Language                                 : Italian
Default                                  : No
Forced                                   : No

Text #2
ID                                       : 4
Format                                   : VobSub
Codec ID                                 : S_VOBSUB
Codec ID/Info                            : Picture based subtitle format used on DVDs
Language                                 : Italian
Default                                  : No
Forced                                   : No

Menu
00:00:00.000                             : :Chapter 1
00:03:49.880                             : :Chapter 2
00:06:33.800                             : :Chapter 3
00:08:47.600                             : :Chapter 4
00:18:12.320                             : :Chapter 5
00:21:11.960                             : :Chapter 6
00:25:29.480                             : :Chapter 7
00:26:56.960                             : :Chapter 8
00:29:06.080                             : :Chapter 9
00:34:12.440                             : :Chapter 10
00:40:05.240                             : :Chapter 11
00:48:14.480                             : :Chapter 12
00:50:34.160                             : :Chapter 13
00:54:34.640                             : :Chapter 14
00:57:44.120                             : :Chapter 15
01:01:31.600                             : :Chapter 16
01:03:53.080                             : :Chapter 17
01:07:28.840                             : :Chapter 18
01:18:02.200                             : :Chapter 19
01:33:37.600                             : :Chapter 20
01:43:47.680                             : :Chapter 21
01:46:16.720                             : :Chapter 22
01:46:52.480                             : :Chapter 23
01:50:26.920                             : :Chapter 24

[/spoiler]





Info: Per scaricare devi usare un client come uTorrent o Transmission
AnnounceURL
udp://tracker.coppersurfer.tk:6969/announce
Hash bcaaa43377e689fbd0de0931d6a8a7c2555c704b
Peers seeds: 51 , leech: 13
Size 1.45 GB
Completato 582x
Aggiunto 04.12.16 - 15:12:32
Uploader   BaMax71
Votazione (Voti: 0)


Condividi questo bittorrent:


html/blog:


bbcode/forum:




Aggiungi Commento


counter