* Dettagli Torrent   globale  | Commenti (0) 


- FBI.Protezione.Testimoni.(2000).H264.Ita.Eng.Ac3.5.1.sub.ita.iCV-MIRCrew -


Download via torrent:
Categoria bittorrent BDRip
Descrizione
FBI.Protezione.Testimoni.(2000).H264.Ita.Eng.Ac3.5.1.sub.ita.iCV-MIRCrew

[color=red][b]
NO FOUND ONLY ORIGINAL RELEASE





For select audio use VLC or dvd player home

[size=36pt]FBI Protezione Testimoni

(2000)[/size]









   DATA USCITA: 2000
   GENERE: Commedia
   REGIA: Jonathan Lynn
   SCENEGGIATURA: Mitchell Kapner
   FOTOGRAFIA: David Franco
   MONTAGGIO: Tom Lewis
   MUSICHE: Bruce Willis, Gary Gold, Randy Edelman
   PRODUZIONE: Rational Packaging, Lansdown Films, Nine Yards Productions
   PAESE: USA
   DURATA: 98 Min



Bruce Willis, Matthew Perry, Rosanna Arquette, Michael Clarke Duncan, Natasha Henstridge, Harland Williams, Amanda Peet, Kevin Pollak



OZ è un simpatico dentista che vive in un bel quartiere di Montreal. Ha una moglie e una suocera infernali con le quali deve convivere in attesa del divorzio che otterrà solo dopo aver ripagato un grosso debito. Il suo nuovo vicino di casa Jimmy "The Tulip" è un killer professionista, con 17 omicidi alle spallle ed una taglia sulla sua testa. Nonostante le molte differenze OZ e Jimmy hanno una qualcosa in comune: qualcuno sta cercando di ucciderli. Per Jimmy evitare una coppia di killer è un gioco da ragazzi, ma per OZ è una faccenda completamente nuova. Per sopravvivere si devono alleare unendo l'astuzia ed il sangue freddo di Jimmy con gli attrezzi da dentista di OZ.



OZ is a nice dentist living in a nice neighborhood in Montreal. He has a wife and a mother-in-law with whom hell has to live pending divorce that will only get after repaying a great debt. His new neighbor Jimmy "The Tulip" is a professional killer, with 17 murders to spallle and a price on his head. Despite the many differences Oz and Jimmy have one thing in common: someone is trying to kill them. Jimmy avoid a pair of killers is a breeze, but for OZ is a completely new thing. To survive you have to form an alliance combining cunning and Jimmy cold blood with by OZ dentist tools.













[spoiler]
General
Unique ID                                : 121479042305279282244198407710763691661 (0x5B6403347404146FB29920352754AE8D)
Complete name                            : FBI.Protezione.Testimoni.(2000).H264.Ita.Eng.Ac3.5.1.sub.ita.iCV-MIRCrew.mkv
Format                                   : Matroska
Format version                           : Version 2
File size                                : 1.43 GiB
Duration                                 : 1 h 34 min
Overall bit rate                         : 2 173 kb/s
FILM : VISIT [url]WWW.ICV-CREW.ORG[/url]
Encoded date                             : UTC 2016-11-17T21:48:41Z
Writing application                      : HandBrake 0.10.5 2016021100
Writing library                          : Lavf55.12.0 / Lavf55.12.0

Video
ID                                       : 1
Format                                   : AVC
Format/Info                              : Advanced Video Codec
Format profile                           : [email protected]
Format settings, CABAC                   : Yes
Format settings, ReFrames                : 4 frames
Codec ID                                 : V_MPEG4/ISO/AVC
Duration                                 : 1 h 34 min
Bit rate                                 : 1 270 kb/s
Width                                    : 718 pixels
Height                                   : 576 pixels
Display aspect ratio                     : 16:9
Frame rate mode                          : Constant
Frame rate                               : 25.000 FPS
Color space                              : YUV
Chroma subsampling                       : 4:2:0
Bit depth                                : 8 bits
Scan type                                : Progressive
Bits/(Pixel*Frame)                       : 0.123
Stream size                              : 833 MiB (57%)
Writing library                          : x264 core 142 r2479 dd79a61
Encoding settings                        : cabac=1 / ref=1 / deblock=1:0:0 / analyse=0x1:0x111 / me=hex / subme=2 / psy=1 / psy_rd=1.00:0.00 / mixed_ref=0 / me_range=16 / chroma_me=1 / trellis=0 / 8x8dct=0 / cqm=0 / deadzone=21,11 / fast_pskip=1 / chroma_qp_offset=0 / threads=6 / lookahead_threads=2 / sliced_threads=0 / nr=0 / decimate=1 / interlaced=0 / bluray_compat=0 / constrained_intra=0 / bframes=3 / b_pyramid=2 / b_adapt=1 / b_bias=0 / direct=1 / weightb=1 / open_gop=0 / weightp=1 / keyint=250 / keyint_min=25 / scenecut=40 / intra_refresh=0 / rc_lookahead=10 / rc=2pass / mbtree=1 / bitrate=1270 / ratetol=1.0 / qcomp=0.60 / qpmin=0 / qpmax=69 / qpstep=4 / cplxblur=20.0 / qblur=0.5 / vbv_maxrate=20000 / vbv_bufsize=25000 / nal_hrd=none / filler=0 / ip_ratio=1.40 / aq=1:1.00
Default                                  : Yes
Forced                                   : No
Color range                              : Limited
Color primaries                          : BT.601 PAL
Transfer characteristics                 : BT.709
Matrix coefficients                      : BT.601

Audio #1
ID                                       : 2
Format                                   : AC-3
Format/Info                              : Audio Coding 3
Format profile                           : Dolby Digital
Mode extension                           : CM (complete main)
Format settings, Endianness              : Big
Codec ID                                 : A_AC3
Duration                                 : 1 h 34 min
Bit rate mode                            : Constant
Bit rate                                 : 448 kb/s
Channel(s)                               : 2 channels
Channel positions                        : Front: L R
Sampling rate                            : 48.0 kHz
Frame rate                               : 31.250 FPS (1536 spf)
Bit depth                                : 16 bits
Compression mode                         : Lossy
Delay relative to video                  : -5 ms
Stream size                              : 302 MiB (21%)
Title                                    : Stereo
Language                                 : English
Default                                  : Yes
Forced                                   : No

Audio #2
ID                                       : 3
Format                                   : AC-3
Format/Info                              : Audio Coding 3
Format profile                           : Dolby Digital
Mode extension                           : CM (complete main)
Format settings, Endianness              : Big
Codec ID                                 : A_AC3
Duration                                 : 1 h 34 min
Bit rate mode                            : Constant
Bit rate                                 : 448 kb/s
Channel(s)                               : 2 channels
Channel positions                        : Front: L R
Sampling rate                            : 48.0 kHz
Frame rate                               : 31.250 FPS (1536 spf)
Bit depth                                : 16 bits
Compression mode                         : Lossy
Delay relative to video                  : -5 ms
Stream size                              : 302 MiB (21%)
Title                                    : Stereo
Language                                 : Italian
Default                                  : No
Forced                                   : No

Text
ID                                       : 4
Format                                   : VobSub
Codec ID                                 : S_VOBSUB
Codec ID/Info                            : Picture based subtitle format used on DVDs
Language                                 : Italian
Default                                  : No
Forced                                   : No

Menu
00:00:00.000                             : :Chapter 1
00:06:22.280                             : :Chapter 2
00:13:55.720                             : :Chapter 3
00:18:06.360                             : :Chapter 4
00:21:22.400                             : :Chapter 5
00:27:41.480                             : :Chapter 6
00:37:19.720                             : :Chapter 7
00:44:03.760                             : :Chapter 8
00:50:58.720                             : :Chapter 9
00:54:54.280                             : :Chapter 10
01:02:04.320                             : :Chapter 11
01:05:54.160                             : :Chapter 12
01:10:26.120                             : :Chapter 13
01:15:00.680                             : :Chapter 14
01:19:42.000                             : :Chapter 15
01:27:19.600                             : :Chapter 16

[/spoiler]





Info: Per scaricare devi usare un client come uTorrent o Transmission
AnnounceURL
udp://tracker.coppersurfer.tk:6969/announce
Hash 51d07a43ff0d40adad01c79feae1df60c3600a58
Peers seeds: 35 , leech: 6
Size 1.43 GB
Completato 430x
Aggiunto 04.12.16 - 15:12:18
Uploader   BaMax71
Votazione (Voti: 0)


Condividi questo bittorrent:


html/blog:


bbcode/forum:




Aggiungi Commento


counter