* Dettagli Torrent   globale  | Commenti (0) 


- Operazione.Valchiria.(2009).H264.Ita.Eng.Ac3.5.1.sub.ita.eng.iCV-MIRCrew -


Download via torrent:
Categoria bittorrent BDRip
Descrizione
Operazione.Valchiria.(2009).H264.Ita.Eng.Ac3.5.1.sub.ita.eng.iCV-MIRCrew


[color=red][b]
NO FOUND ONLY ORIGINAL RELEASE





For select audio use VLC or dvd player home

[size=36pt]Operazione Valchiria
+ EXTRA BONUS
(2009)[/size]









   DATA USCITA: 2009
   GENERE: Drammatico
   REGIA: Bryan Singer
   SCENEGGIATURA: Christopher McQuarrie, Nathan Alexander
   FOTOGRAFIA: Newton Thomas Sigel
   MONTAGGIO: John Ottman
   MUSICHE: John Ottman
   PRODUZIONE: United Artists, Bad Hat Harry Productions,
   DISTRIBUZIONE: 01 distribution
   PAESE: USA
   DURATA: 121 Min



Tom Cruise, Kenneth Branagh, Carice van Houten, Eddie Izzard, Bill Nighy, Terence Stamp, Thomas Kretschmann, Kevin McNally, David Bamber, Halina Reijn, David Schofield, Werner Daehn, Christian Berkel, Matthias Freihof, Gerhard Haase-Hindenberg, Jamie Parker, Florian Panzner, Manfred-Anton Algrang, Karl-Alexander Seidel, Tom Wilkinson, Stephen Fry, Tom Hollander



1944: tornato in Germania dalla campagna d'Africa, dove è stato ferito gravemente, il colonnello Claus von Stauffenberg, un aristocratico tedesco, si unisce alla Resistenza ed entra a far parte dell'operazione Vakyrie, un piano che mira alla presa del potere da parte di un governo ombra una volta morto Hitler. Von Stauffenberg assumerà un ruolo centrale nel piano: sarà proprio lui a dover portare avanti il colpo di stato, uccidendo di sua mano il Führer. Il film è ispirato a fatti realmente accaduti: il vero von Stauffenberg fu a capo di un piano – noto come il Complotto del 20 luglio – che mirava ad abbattere il nazismo e a porre fine alla guerra assassinando Adolf Hitler.



1944 returned to Germany from the African campaign, where he was seriously wounded, Colonel Claus von Stauffenberg, a German aristocrat, joins the Resistance and becomes part of the transaction Vakyrie, a plan that aims at taking power part of a shadow government when Hitler died. Von Stauffenberg will assume a central role in the plan: he who will have to carry out the coup, killing with his own hand the Führer. The film is inspired by true events: the real von Stauffenberg was the leader of a plan - known as the July 20 Plot - which aimed to overthrow the Nazis and to end the war by assassinating Adolf Hitler.













[spoiler]
General
Unique ID                                : 65575669262677600545900423775403883517 (0x31556A1D0A5C6801E1EAF94FC827BBFD)
Complete name                            : Operazione.Valchiria.(2009).H264.Ita.Eng.Ac3.5.1.sub.ita.eng.iCV-MIRCrew.mkv
Format                                   : Matroska
Format version                           : Version 2
File size                                : 2.14 GiB
Duration                                 : 1 h 56 min
Overall bit rate                         : 2 628 kb/s
Encoded date                             : UTC 2016-11-03T14:12:53Z
Writing application                      : HandBrake 0.10.5 2016021100
Writing library                          : Lavf55.12.0 / Lavf55.12.0

Video
ID                                       : 1
Format                                   : AVC
Format/Info                              : Advanced Video Codec
Format profile                           : [email protected]
Format settings, CABAC                   : Yes
Format settings, ReFrames                : 4 frames
Codec ID                                 : V_MPEG4/ISO/AVC
Duration                                 : 1 h 56 min
Bit rate                                 : 1 270 kb/s
Width                                    : 720 pixels
Height                                   : 552 pixels
Display aspect ratio                     : 1.85:1
Frame rate mode                          : Constant
Frame rate                               : 25.000 FPS
Color space                              : YUV
Chroma subsampling                       : 4:2:0
Bit depth                                : 8 bits
Scan type                                : Progressive
Bits/(Pixel*Frame)                       : 0.128
Stream size                              : 1.00 GiB (47%)
Writing library                          : x264 core 142 r2479 dd79a61
Encoding settings                        : cabac=1 / ref=1 / deblock=1:0:0 / analyse=0x1:0x111 / me=hex / subme=2 / psy=1 / psy_rd=1.00:0.00 / mixed_ref=0 / me_range=16 / chroma_me=1 / trellis=0 / 8x8dct=0 / cqm=0 / deadzone=21,11 / fast_pskip=1 / chroma_qp_offset=0 / threads=6 / lookahead_threads=2 / sliced_threads=0 / nr=0 / decimate=1 / interlaced=0 / bluray_compat=0 / constrained_intra=0 / bframes=3 / b_pyramid=2 / b_adapt=1 / b_bias=0 / direct=1 / weightb=1 / open_gop=0 / weightp=1 / keyint=250 / keyint_min=25 / scenecut=40 / intra_refresh=0 / rc_lookahead=10 / rc=2pass / mbtree=1 / bitrate=1270 / ratetol=1.0 / qcomp=0.60 / qpmin=0 / qpmax=69 / qpstep=4 / cplxblur=20.0 / qblur=0.5 / vbv_maxrate=20000 / vbv_bufsize=25000 / nal_hrd=none / filler=0 / ip_ratio=1.40 / aq=1:1.00
Default                                  : Yes
Forced                                   : No
Color range                              : Limited
Color primaries                          : BT.601 PAL
Transfer characteristics                 : BT.709
Matrix coefficients                      : BT.601

Audio #1
ID                                       : 2
Format                                   : AC-3
Format/Info                              : Audio Coding 3
Format profile                           : Dolby Digital
Mode extension                           : CM (complete main)
Format settings, Endianness              : Big
Codec ID                                 : A_AC3
Duration                                 : 1 h 56 min
Bit rate mode                            : Constant
Bit rate                                 : 448 kb/s
Channel(s)                               : 2 channels
Channel positions                        : Front: L R
Sampling rate                            : 48.0 kHz
Frame rate                               : 31.250 FPS (1536 spf)
Bit depth                                : 16 bits
Compression mode                         : Lossy
Delay relative to video                  : -5 ms
Stream size                              : 373 MiB (17%)
Title                                    : Stereo
Language                                 : Italian
Default                                  : Yes
Forced                                   : No

Audio #2
ID                                       : 3
Format                                   : AC-3
Format/Info                              : Audio Coding 3
Format profile                           : Dolby Digital
Mode extension                           : CM (complete main)
Format settings, Endianness              : Big
Codec ID                                 : A_AC3
Duration                                 : 1 h 56 min
Bit rate mode                            : Constant
Bit rate                                 : 448 kb/s
Channel(s)                               : 2 channels
Channel positions                        : Front: L R
Sampling rate                            : 48.0 kHz
Frame rate                               : 31.250 FPS (1536 spf)
Bit depth                                : 16 bits
Compression mode                         : Lossy
Delay relative to video                  : -5 ms
Stream size                              : 373 MiB (17%)
Title                                    : Stereo
Language                                 : English
Default                                  : No
Forced                                   : No

Audio #3
ID                                       : 4
Format                                   : AC-3
Format/Info                              : Audio Coding 3
Format profile                           : Dolby Digital
Mode extension                           : CM (complete main)
Format settings, Endianness              : Big
Codec ID                                 : A_AC3
Duration                                 : 1 h 56 min
Bit rate mode                            : Constant
Bit rate                                 : 448 kb/s
Channel(s)                               : 2 channels
Channel positions                        : Front: L R
Sampling rate                            : 48.0 kHz
Frame rate                               : 31.250 FPS (1536 spf)
Bit depth                                : 16 bits
Compression mode                         : Lossy
Delay relative to video                  : -5 ms
Stream size                              : 373 MiB (17%)
Title                                    : Stereo
Language                                 : Italian
Default                                  : No
Forced                                   : No

Text #1
ID                                       : 5
Format                                   : VobSub
Codec ID                                 : S_VOBSUB
Codec ID/Info                            : Picture based subtitle format used on DVDs
Language                                 : Italian
Default                                  : No
Forced                                   : No

Text #2
ID                                       : 6
Format                                   : VobSub
Codec ID                                 : S_VOBSUB
Codec ID/Info                            : Picture based subtitle format used on DVDs
Default                                  : No
Forced                                   : No

Text #3
ID                                       : 7
Format                                   : VobSub
Codec ID                                 : S_VOBSUB
Codec ID/Info                            : Picture based subtitle format used on DVDs
Language                                 : English
Default                                  : No
Forced                                   : No

Text #4
ID                                       : 8
Format                                   : VobSub
Codec ID                                 : S_VOBSUB
Codec ID/Info                            : Picture based subtitle format used on DVDs
Default                                  : No
Forced                                   : No

Menu
00:00:00.000                             : :Chapter 1
00:06:31.440                             : :Chapter 2
00:13:40.080                             : :Chapter 3
00:17:31.440                             : :Chapter 4
00:20:19.440                             : :Chapter 5
00:25:25.200                             : :Chapter 6
00:29:04.560                             : :Chapter 7
00:35:30.000                             : :Chapter 8
00:41:10.320                             : :Chapter 9
00:44:40.080                             : :Chapter 10
00:52:50.160                             : :Chapter 11
00:59:59.280                             : :Chapter 12
01:06:48.240                             : :Chapter 13
01:10:12.720                             : :Chapter 14
01:13:24.240                             : :Chapter 15
01:18:13.200                             : :Chapter 16
01:24:14.160                             : :Chapter 17
01:29:01.200                             : :Chapter 18
01:37:44.400                             : :Chapter 19
01:42:06.000                             : :Chapter 20

[/spoiler]





Info: Per scaricare devi usare un client come uTorrent o Transmission
AnnounceURL
udp://tracker.coppersurfer.tk:6969/announce
Hash 5e4c039ba5b37600f472d6afc68f8c65e6a3886e
Peers seeds: 57 , leech: 37
Size 2.54 GB
Completato 538x
Aggiunto 29.11.16 - 16:11:45
Uploader   BaMax71
Votazione (Voti: 0)


Condividi questo bittorrent:


html/blog:


bbcode/forum:




Aggiungi Commento


counter