* Dettagli Torrent   globale  | Commenti (0) 


- Il.Cacciatore.The.Deer.Hunter.(1978).H264.Ita.Eng.Ger.Spa.Ac3.2.0.multi.sub.iCV-MIRCrew -


Download via torrent:
Categoria bittorrent BDRip
Descrizione
Il.Cacciatore.The.Deer.Hunter.(197.H264.Ita.Eng.Ger.Spa.Ac3.2.0.multi.sub.iCV-MIRCrew


[color=red][b]
NO FOUND ONLY ORIGINAL RELEASE





For select audio use VLC or dvd player home

[size=36pt]The Lumiere Brothers First Films

(197[/size]









   DATA USCITA: 1978
   GENERE: Drammatico
   REGIA: Michael Cimino
   SCENEGGIATURA: Deric Washburn
   FOTOGRAFIA: Vilmos Zsigmond
   MONTAGGIO: Peter Zinner
   MUSICHE: Stanley Myers
   PRODUZIONE: EMI FILMS, UNIVERSAL PICTURES
   DISTRIBUZIONE: Titanus
   PAESE: USA
   DURATA: 183 Min



Robert De Niro, John Cazale, John Savage, Christopher Walken, Meryl Streep, George Dzundza, Chuck Aspegren, Shirley Stoler, Rutanya Alda, Pierre Segui, Mady Kaplan, Mary Ann Haenel, Richard Kuss, Amy Wright



Tre giovani amici - Mike, Nick e Steven - lavorano in una acciaieria di Clayton, in Pennsylvania. Quando hanno del tempo libero, vanno a caccia di cervi. Sono stati chiamati alle armi e stanno per recarsi in Vietnam. In occasione delle nozze di Steven con Angela, tutta la comunità di origine russa si stringe intorno a loro per la cerimonia religiosa e per il chiassoso ricevimento che l'accompagna. Quando i tre giungono sul teatro delle operazioni militari, cadono prigionieri dei Vietcong e subiscono terribili torture prima di reagire e tentare di liberarsi. Gli avvenimenti successivi li disperdono.



Three young friends - Mike, Nick and Steven - working in a steel mill in Clayton, Pennsylvania. When they have free time, they go hunting for deer. They were called to arms and are about to go in Vietnam. On the occasion of the wedding of Steven with Angela, all of Russian origin community rallies around them for the religious ceremony and the boisterous reception that accompanies it. When the three arrive in the theater of military operations, falling prisoner of the Vietcong and suffer terrible torture before reacting and groped to break free. Subsequent events disperse them.













[spoiler]
General
Unique ID                                : 11659943518604814083298162603101699492 (0x8C59F9995253C25DDC99EECFD5ABDA4)
Complete name                            : Il.Cacciatore.The.Deer.Hunter.(197.H264.Ita.Eng.Ger.Spa.Ac3.2.0.multi.sub.iCV-MIRCrew.mkv
Format                                   : Matroska
Format version                           : Version 2
File size                                : 2.82 GiB
Duration                                 : 2 h 54 min
Overall bit rate                         : 2 314 kb/s
Encoded date                             : UTC 2016-11-08T14:02:00Z
Writing application                      : HandBrake 0.10.5 2016021100
Writing library                          : Lavf55.12.0 / Lavf55.12.0

Video
ID                                       : 1
Format                                   : AVC
Format/Info                              : Advanced Video Codec
Format profile                           : [email protected]
Format settings, CABAC                   : Yes
Format settings, ReFrames                : 4 frames
Codec ID                                 : V_MPEG4/ISO/AVC
Duration                                 : 2 h 54 min
Bit rate                                 : 1 270 kb/s
Width                                    : 720 pixels
Height                                   : 450 pixels
Display aspect ratio                     : 2.25:1
Original display aspect ratio            : 2.25:1
Frame rate mode                          : Constant
Frame rate                               : 25.000 FPS
Color space                              : YUV
Chroma subsampling                       : 4:2:0
Bit depth                                : 8 bits
Scan type                                : Progressive
Bits/(Pixel*Frame)                       : 0.157
Stream size                              : 1.52 GiB (54%)
Writing library                          : x264 core 142 r2479 dd79a61
Encoding settings                        : cabac=1 / ref=1 / deblock=1:0:0 / analyse=0x1:0x111 / me=hex / subme=2 / psy=1 / psy_rd=1.00:0.00 / mixed_ref=0 / me_range=16 / chroma_me=1 / trellis=0 / 8x8dct=0 / cqm=0 / deadzone=21,11 / fast_pskip=1 / chroma_qp_offset=0 / threads=6 / lookahead_threads=2 / sliced_threads=0 / nr=0 / decimate=1 / interlaced=0 / bluray_compat=0 / constrained_intra=0 / bframes=3 / b_pyramid=2 / b_adapt=1 / b_bias=0 / direct=1 / weightb=1 / open_gop=0 / weightp=1 / keyint=250 / keyint_min=25 / scenecut=40 / intra_refresh=0 / rc_lookahead=10 / rc=2pass / mbtree=1 / bitrate=1270 / ratetol=1.0 / qcomp=0.60 / qpmin=0 / qpmax=69 / qpstep=4 / cplxblur=20.0 / qblur=0.5 / vbv_maxrate=20000 / vbv_bufsize=25000 / nal_hrd=none / filler=0 / ip_ratio=1.40 / aq=1:1.00
Default                                  : Yes
Forced                                   : No
Color range                              : Limited
Color primaries                          : BT.601 PAL
Transfer characteristics                 : BT.709
Matrix coefficients                      : BT.601

Audio #1
ID                                       : 2
Format                                   : AC-3
Format/Info                              : Audio Coding 3
Mode extension                           : CM (complete main)
Format settings, Endianness              : Big
Codec ID                                 : A_AC3
Duration                                 : 2 h 54 min
Bit rate mode                            : Constant
Bit rate                                 : 256 kb/s
Channel(s)                               : 2 channels
Channel positions                        : Front: L R
Sampling rate                            : 48.0 kHz
Frame rate                               : 31.250 FPS (1536 spf)
Bit depth                                : 16 bits
Compression mode                         : Lossy
Delay relative to video                  : -5 ms
Stream size                              : 320 MiB (11%)
Title                                    : Stereo
Language                                 : Italian
Default                                  : Yes
Forced                                   : No

Audio #2
ID                                       : 3
Format                                   : AC-3
Format/Info                              : Audio Coding 3
Mode extension                           : CM (complete main)
Format settings, Endianness              : Big
Codec ID                                 : A_AC3
Duration                                 : 2 h 54 min
Bit rate mode                            : Constant
Bit rate                                 : 256 kb/s
Channel(s)                               : 2 channels
Channel positions                        : Front: L R
Sampling rate                            : 48.0 kHz
Frame rate                               : 31.250 FPS (1536 spf)
Bit depth                                : 16 bits
Compression mode                         : Lossy
Delay relative to video                  : -5 ms
Stream size                              : 320 MiB (11%)
Title                                    : Stereo
Language                                 : English
Default                                  : No
Forced                                   : No

Audio #3
ID                                       : 4
Format                                   : AC-3
Format/Info                              : Audio Coding 3
Mode extension                           : CM (complete main)
Format settings, Endianness              : Big
Codec ID                                 : A_AC3
Duration                                 : 2 h 54 min
Bit rate mode                            : Constant
Bit rate                                 : 256 kb/s
Channel(s)                               : 2 channels
Channel positions                        : Front: L R
Sampling rate                            : 48.0 kHz
Frame rate                               : 31.250 FPS (1536 spf)
Bit depth                                : 16 bits
Compression mode                         : Lossy
Delay relative to video                  : -5 ms
Stream size                              : 320 MiB (11%)
Title                                    : Stereo
Language                                 : German
Default                                  : No
Forced                                   : No

Audio #4
ID                                       : 5
Format                                   : AC-3
Format/Info                              : Audio Coding 3
Mode extension                           : CM (complete main)
Format settings, Endianness              : Big
Codec ID                                 : A_AC3
Duration                                 : 2 h 54 min
Bit rate mode                            : Constant
Bit rate                                 : 256 kb/s
Channel(s)                               : 2 channels
Channel positions                        : Front: L R
Sampling rate                            : 48.0 kHz
Frame rate                               : 31.250 FPS (1536 spf)
Bit depth                                : 16 bits
Compression mode                         : Lossy
Delay relative to video                  : -5 ms
Stream size                              : 320 MiB (11%)
Title                                    : Stereo
Language                                 : Spanish
Default                                  : No
Forced                                   : No

Text #1
ID                                       : 6
Format                                   : VobSub
Codec ID                                 : S_VOBSUB
Codec ID/Info                            : Picture based subtitle format used on DVDs
Language                                 : English
Default                                  : No
Forced                                   : No

Text #2
ID                                       : 7
Format                                   : VobSub
Codec ID                                 : S_VOBSUB
Codec ID/Info                            : Picture based subtitle format used on DVDs
Language                                 : German
Default                                  : No
Forced                                   : No

Text #3
ID                                       : 8
Format                                   : VobSub
Codec ID                                 : S_VOBSUB
Codec ID/Info                            : Picture based subtitle format used on DVDs
Language                                 : Spanish
Default                                  : No
Forced                                   : No

Text #4
ID                                       : 9
Format                                   : VobSub
Codec ID                                 : S_VOBSUB
Codec ID/Info                            : Picture based subtitle format used on DVDs
Language                                 : Italian
Default                                  : No
Forced                                   : No

Text #5
ID                                       : 10
Format                                   : VobSub
Codec ID                                 : S_VOBSUB
Codec ID/Info                            : Picture based subtitle format used on DVDs
Language                                 : Portuguese
Default                                  : No
Forced                                   : No

Text #6
ID                                       : 11
Format                                   : VobSub
Codec ID                                 : S_VOBSUB
Codec ID/Info                            : Picture based subtitle format used on DVDs
Language                                 : Turkish
Default                                  : No
Forced                                   : No

Menu
00:00:00.000                             : :Chapter 1
00:10:14.720                             : :Chapter 2
00:13:03.280                             : :Chapter 3
00:16:04.720                             : :Chapter 4
00:26:59.360                             : :Chapter 5
00:41:13.080                             : :Chapter 6
00:45:12.760                             : :Chapter 7
00:49:30.920                             : :Chapter 8
01:01:25.760                             : :Chapter 9
01:05:00.240                             : :Chapter 10
01:07:58.600                             : :Chapter 11
01:15:06.720                             : :Chapter 12
01:21:22.480                             : :Chapter 13
01:24:52.200                             : :Chapter 14
01:29:18.480                             : :Chapter 15
01:36:02.211                             : :Chapter 16
01:39:33.611                             : :Chapter 17
01:44:54.491                             : :Chapter 18
01:48:49.131                             : :Chapter 19
02:02:59.211                             : :Chapter 20
02:06:03.451                             : :Chapter 21
02:09:28.971                             : :Chapter 22
02:15:07.771                             : :Chapter 23
02:23:34.851                             : :Chapter 24
02:26:44.411                             : :Chapter 25
02:36:16.171                             : :Chapter 26
02:43:03.571                             : :Chapter 27
02:51:04.611                             : :Chapter 28

[/spoiler]





Info: Per scaricare devi usare un client come uTorrent o Transmission
AnnounceURL
udp://tracker.coppersurfer.tk:6969/announce
Hash 084c899137c7006439a67500967602f41b36d34e
Peers seeds: 50 , leech: 20
Size 2.82 GB
Completato 541x
Aggiunto 29.11.16 - 16:11:29
Uploader   BaMax71
Votazione (Voti: 0)


Condividi questo bittorrent:


html/blog:


bbcode/forum:




Aggiungi Commento


counter