* Dettagli Torrent   globale  | Commenti (0) 


- Il.Primo.Film.Dei.Fratelli.Lumiere.The.Lumiere.Brothers.First.Films.(1895).H264.Eng.Ac3.2.0.iCV-MIRC -


Download via torrent:
Categoria bittorrent BDRip
Descrizione
Il.Primo.Film.Dei.Fratelli.Lumiere.The.Lumiere.Brothers.First.Films.(1895).H264.Eng.Ac3.2.0.iCV-MIRCrew


[color=red][b]
NO FOUND ONLY ORIGINAL RELEASE





For select audio use VLC or dvd player home

[size=36pt]The Lumiere Brothers First Films

(1895)[/size]









   DATA USCITA: 1996
   GENERE: Storia
   ANNO: 1895
   REGIA: Antoine Lumière, Auguste Lumière
   SCENEGGIATURA:
  NARRATORE: Bertrand Tavernier
   FOTOGRAFIA:
   MONTAGGIO: Thierry Fremaux
   MUSICHE: Stuart Oderman
   PRODUZIONE:  
   DISTRIBUZIONE:
   PAESE: USA
   DURATA: 61 Min



Mrs. Auguste Lumiere, Antoine Lumière, Auguste Lumière, Félicien Trewey, M. Winckler



Una raccolta di cortometraggi realizzati dai fratelli Lumière, un team di registi d'avanguardia nel volgere del secolo in Francia.



A collection of short films made by the Lumiere brothers, a team of pioneering filmmakers in turn-of-the-century France.













[spoiler]
General
Unique ID                                : 30333992503501497964620748869559983676 (0x16D21D4C9081518E0134B1C84F091E3C)
Complete name                            : Il.Primo.Film.Dei.Fratelli.Lumiere.The.Lumiere.Brothers.First.Films.(1895).H264.Eng.Ac3.2.0.iCV-MIRCrew.mkv
Format                                   : Matroska
Format version                           : Version 2
File size                                : 659 MiB
Duration                                 : 1 h 0 min
Overall bit rate                         : 1 529 kb/s
Encoded date                             : UTC 2016-11-03T21:33:17Z
Writing application                      : HandBrake 0.10.5 2016021100
Writing library                          : Lavf55.12.0 / Lavf55.12.0

Video
ID                                       : 1
Format                                   : AVC
Format/Info                              : Advanced Video Codec
Format profile                           : [email protected]
Format settings, CABAC                   : Yes
Format settings, ReFrames                : 4 frames
Codec ID                                 : V_MPEG4/ISO/AVC
Duration                                 : 1 h 0 min
Bit rate                                 : 1 270 kb/s
Width                                    : 554 pixels
Height                                   : 472 pixels
Display aspect ratio                     : 1.174
Frame rate mode                          : Constant
Frame rate                               : 25.000 FPS
Color space                              : YUV
Chroma subsampling                       : 4:2:0
Bit depth                                : 8 bits
Scan type                                : Progressive
Bits/(Pixel*Frame)                       : 0.194
Stream size                              : 536 MiB (81%)
Writing library                          : x264 core 142 r2479 dd79a61
Encoding settings                        : cabac=1 / ref=1 / deblock=1:0:0 / analyse=0x1:0x111 / me=hex / subme=2 / psy=1 / psy_rd=1.00:0.00 / mixed_ref=0 / me_range=16 / chroma_me=1 / trellis=0 / 8x8dct=0 / cqm=0 / deadzone=21,11 / fast_pskip=1 / chroma_qp_offset=0 / threads=6 / lookahead_threads=2 / sliced_threads=0 / nr=0 / decimate=1 / interlaced=0 / bluray_compat=0 / constrained_intra=0 / bframes=3 / b_pyramid=2 / b_adapt=1 / b_bias=0 / direct=1 / weightb=1 / open_gop=0 / weightp=1 / keyint=250 / keyint_min=25 / scenecut=40 / intra_refresh=0 / rc_lookahead=10 / rc=2pass / mbtree=1 / bitrate=1270 / ratetol=1.0 / qcomp=0.60 / qpmin=0 / qpmax=69 / qpstep=4 / cplxblur=20.0 / qblur=0.5 / vbv_maxrate=20000 / vbv_bufsize=25000 / nal_hrd=none / filler=0 / ip_ratio=1.40 / aq=1:1.00
Default                                  : Yes
Forced                                   : No
Color range                              : Limited
Color primaries                          : BT.601 PAL
Transfer characteristics                 : BT.709
Matrix coefficients                      : BT.601

Audio
ID                                       : 2
Format                                   : AC-3
Format/Info                              : Audio Coding 3
Mode extension                           : CM (complete main)
Format settings, Endianness              : Big
Codec ID                                 : A_AC3
Duration                                 : 1 h 0 min
Bit rate mode                            : Constant
Bit rate                                 : 256 kb/s
Channel(s)                               : 2 channels
Channel positions                        : Front: L R
Sampling rate                            : 48.0 kHz
Frame rate                               : 31.250 FPS (1536 spf)
Bit depth                                : 16 bits
Compression mode                         : Lossy
Delay relative to video                  : -5 ms
Stream size                              : 110 MiB (17%)
Title                                    : Stereo
Language                                 : English
Default                                  : Yes
Forced                                   : No

Menu
00:00:00.000                             : :Chapter 1
00:05:00.180                             : :Chapter 2
00:10:00.220                             : :Chapter 3
00:15:00.260                             : :Chapter 4
00:20:00.300                             : :Chapter 5
00:25:00.340                             : :Chapter 6
00:30:00.380                             : :Chapter 7
00:35:00.420                             : :Chapter 8
00:40:00.460                             : :Chapter 9
00:45:00.500                             : :Chapter 10
00:50:00.540                             : :Chapter 11
00:55:00.580                             : :Chapter 12
01:00:00.620                             : :Chapter 13


[/spoiler]





Info: Per scaricare devi usare un client come uTorrent o Transmission
AnnounceURL
udp://tracker.coppersurfer.tk:6969/announce
Hash 6fe6aa9d16e84526c2bf9040494621473cbbcd2d
Peers seeds: 70 , leech: 5
Size 659.21 MB
Completato 780x
Aggiunto 29.11.16 - 16:11:07
Uploader   BaMax71
Votazione (Voti: 1)


Condividi questo bittorrent:


html/blog:


bbcode/forum:




Aggiungi Commento


counter