Loading...
 * Dettagli Torrent   globale  | Commenti (0) 


- Che.Largentino.Guerriglia.(2008).H264.Ita.Spa.Ac3.5.1.sub.ita.iCV-MIRCrew -


Download via torrent:
Categoria bittorrent BDRip
Descrizione
Che.Largentino.Guerriglia.(200.H264.Ita.Spa.Ac3.5.1.sub.ita.iCV-MIRCrew

[center]

[color=red][b]
NO FOUND ONLY ORIGINAL RELEASE





For select audio use VLC or dvd player home

[size=36pt]Che L'Argentino
Che Guerriglia

+EXTRA BONUS

(200[/size]









   DATA USCITA: 2008
   GENERE: Drammatico
   ANNO: 2008
   REGIA: Steven Soderbergh
   SCENEGGIATURA: Peter Buchman, Steven Soderbergh, Ben Van Der Veen
   FOTOGRAFIA: Steven Soderbergh
   MONTAGGIO: Pablo Zumárraga
   MUSICHE: Alberto Iglesias
   PRODUZIONE: Section Eight, Wild Bunch, Telecinco, Morena Films, Laura Bickford Productions, Estudios Picasso
   DISTRIBUZIONE: BIM
   PAESE: USA/SPA
   DURATA: 253 Min



Benicio Del Toro, Demian Bichir, Santiago Cabrera, Elvira Mínguez, Jorge Perugorría, Edgar Ramirez, Victor Rasuk, Armando Riesco, Catalina Sandino Moreno, Rodrigo Santoro, Unax Ugalde, Yul Vázquez, Carlos Bardem, Joaquim de Almeida, Eduard Fernández, Ramón Fernández, Óscar Jaenada, Kahlil Mendez, Jordi Mollà, Rubén Ochandiano, Julia Ormond, Gastón Pauls, Lou Diamond Phillips, Franka Potente, Mark Umbers, René Lavan, Marc-André Grondin, Benjamín Benítez, Octavio Gómez, Anthony Veneziale, Matt Damon, Antonio Peredo, Othello Rensoli



L'argentino è il primo episodio della pellicola realizzata dal regista americano Steven Soderbergh sulla storia di Ernesto Guevara. Il film racconta la storia di Guevara ai tempi della rivoluzione cubana dei barbudos guidati da Fidel Castro.
26 novembre del 1956 Fidel Castro salpa per Cuba con 80 ribelli. Uno di quei ribelli è Ernesto “Che” Guevara, un medico argentino che condivide il sogno di Fidel - rovesciare la dittatura corrotta di Fulgencio Batista. Il Che si rivela indispensabile come combattente e impara presto l’arte della guerra di guerriglia, diventando il beniamino dei suoi compagni e del popolo cubano.

Guerrilla, è il secondo episodio della pellicola realizzata dal regista americano Steven Soderbergh sulla storia di Ernesto Guevara.
Dopo la rivoluzione cubana, il Che è all'apice della sua fama e del suo potere. Poi improvvisamente sparisce, e ricompare in incognito in Bolivia, dove organizza un piccolo gruppo di compagni cubani e reclute boliviane destinati a dare inizio alla grande rivoluzione latino-americana.
Quella della campagna boliviana del Che è una storia di tenacia, sacrificio e idealismo - è il racconto della sconfitta di una guerra di guerriglia che alla fine lo condurrà alla morte. Ripercorrendo la sua storia, riusciamo a capire come il Che sia rimasto un simbolo dell'idealismo e dell'eroismo, ancora vivo nei cuori della gente di tutto il mondo.



The Argentine is the first episode of the film made by US director Steven Soderbergh on the story of Ernesto Guevara. The film tells the story of Guevara at the time of the Cuban revolution led by Fidel Castro barbudos.
November 26, 1956, Fidel Castro sails to Cuba with eighty rebels. One of those rebels is Ernesto "Che" Guevara, an Argentine doctor who shares the dream of Fidel - to overthrow the corrupt dictatorship of Fulgencio Batista. Che proves indispensable as a fighter and soon learns the art of guerrilla warfare, becoming the darling of his comrades and the Cuban people.

Guerrilla, is the second episode of the film made by US director Steven Soderbergh on the story of Ernesto Guevara.
After the Cuban Revolution, Che is at the height of its fame and its power. Then suddenly he disappears, and reappears incognito in Bolivia, where he organizes a small group of Cuban comrades and Bolivian recruits to start the great Latin American Revolution.
That of the Bolivian campaign What is a story of tenacity, sacrifice and idealism - is the story of the defeat of a guerrilla war that eventually lead him to death. Through this story, we can understand how Che remains a symbol of idealism and heroism that lives in the hearts of people all over the world.

















Code

General
Unique ID                                : 318030869114934407549405039931347381226 (0xEF428474C58F36B27506B5D6CBA32BEA)
Complete name                            : Che.Largentino.(200.H264.Ita.Spa.Ac3.5.1.sub.ita.iCV-MIRCrew.mkv
Format                                   : Matroska
Format version                           : Version 2
File size                                : 1.74 GiB
Duration                                 : 2 h 5 min
Overall bit rate                         : 1 983 kb/s
Encoded date                             : UTC 2016-11-07T23:04:58Z
Writing application                      : HandBrake 0.10.5 2016021100
Writing library                          : Lavf55.12.0 / Lavf55.12.0

Video
ID                                       : 1
Format                                   : AVC
Format/Info                              : Advanced Video Codec
Format profile                           : [email protected]
Format settings, CABAC                   : Yes
Format settings, ReFrames                : 4 frames
Codec ID                                 : V_MPEG4/ISO/AVC
Duration                                 : 2 h 5 min
Bit rate                                 : 1 270 kb/s
Width                                    : 720 pixels
Height                                   : 428 pixels
Display aspect ratio                     : 2.40:1
Frame rate mode                          : Constant
Frame rate                               : 25.000 FPS
Color space                              : YUV
Chroma subsampling                       : 4:2:0
Bit depth                                : 8 bits
Scan type                                : Progressive
Bits/(Pixel*Frame)                       : 0.165
Stream size                              : 1.09 GiB (63%)
Writing library                          : x264 core 142 r2479 dd79a61
Encoding settings                        : cabac=1 / ref=1 / deblock=1:0:0 / analyse=0x1:0x111 / me=hex / subme=2 / psy=1 / psy_rd=1.00:0.00 / mixed_ref=0 / me_range=16 / chroma_me=1 / trellis=0 / 8x8dct=0 / cqm=0 / deadzone=21,11 / fast_pskip=1 / chroma_qp_offset=0 / threads=6 / lookahead_threads=2 / sliced_threads=0 / nr=0 / decimate=1 / interlaced=0 / bluray_compat=0 / constrained_intra=0 / bframes=3 / b_pyramid=2 / b_adapt=1 / b_bias=0 / direct=1 / weightb=1 / open_gop=0 / weightp=1 / keyint=250 / keyint_min=25 / scenecut=40 / intra_refresh=0 / rc_lookahead=10 / rc=2pass / mbtree=1 / bitrate=1270 / ratetol=1.0 / qcomp=0.60 / qpmin=0 / qpmax=69 / qpstep=4 / cplxblur=20.0 / qblur=0.5 / vbv_maxrate=20000 / vbv_bufsize=25000 / nal_hrd=none / filler=0 / ip_ratio=1.40 / aq=1:1.00
Default                                  : Yes
Forced                                   : No
Color range                              : Limited
Color primaries                          : BT.601 PAL
Transfer characteristics                 : BT.709
Matrix coefficients                      : BT.601

Audio #1
ID                                       : 2
Format                                   : AC-3
Format/Info                              : Audio Coding 3
Format profile                           : Dolby Digital
Mode extension                           : CM (complete main)
Format settings, Endianness              : Big
Codec ID                                 : A_AC3
Duration                                 : 2 h 5 min
Bit rate mode                            : Constant
Bit rate                                 : 448 kb/s
Channel(s)                               : 2 channels
Channel positions                        : Front: L R
Sampling rate                            : 48.0 kHz
Frame rate                               : 31.250 FPS (1536 spf)
Bit depth                                : 16 bits
Compression mode                         : Lossy
Delay relative to video                  : -5 ms
Stream size                              : 404 MiB (23%)
Title                                    : Stereo
Language                                 : Italian
Default                                  : Yes
Forced                                   : No

Audio #2
ID                                       : 3
Format                                   : AC-3
Format/Info                              : Audio Coding 3
Mode extension                           : CM (complete main)
Format settings, Endianness              : Big
Codec ID                                 : A_AC3
Duration                                 : 2 h 5 min
Bit rate mode                            : Constant
Bit rate                                 : 256 kb/s
Channel(s)                               : 2 channels
Channel positions                        : Front: L R
Sampling rate                            : 48.0 kHz
Frame rate                               : 31.250 FPS (1536 spf)
Bit depth                                : 16 bits
Compression mode                         : Lossy
Delay relative to video                  : -5 ms
Stream size                              : 231 MiB (13%)
Title                                    : Stereo
Language                                 : Spanish
Default                                  : No
Forced                                   : No

Text #1
ID                                       : 4
Format                                   : VobSub
Codec ID                                 : S_VOBSUB
Codec ID/Info                            : Picture based subtitle format used on DVDs
Language                                 : Italian
Default                                  : No
Forced                                   : No

Text #2
ID                                       : 5
Format                                   : VobSub
Codec ID                                 : S_VOBSUB
Codec ID/Info                            : Picture based subtitle format used on DVDs
Default                                  : No
Forced                                   : No

Menu
00:00:00.000                             : :Chapter 1
00:07:12.200                             : :Chapter 2
00:13:04.080                             : :Chapter 3
00:22:12.280                             : :Chapter 4
00:32:18.880                             : :Chapter 5
00:40:52.280                             : :Chapter 6
00:50:32.520                             : :Chapter 7
01:02:34.400                             : :Chapter 8
01:09:27.560                             : :Chapter 9
01:18:46.160                             : :Chapter 10
01:29:57.560                             : :Chapter 11
01:35:04.960                             : :Chapter 12
01:42:28.200                             : :Chapter 13
01:46:11.760                             : :Chapter 14
01:53:03.440                             : :Chapter 15
01:58:44.600                             : :Chapter 16

General
Unique ID                                : 307136739785973103071700053527007601673 (0xE71062692FE518F4D47BB4105D282409)
Complete name                            : Che.Guerriglia.(200.H264.Ita.Spa.Ac3.5.1.sub.ita.iCV-MIRCrew\Che.Guerriglia.(200.H264.Ita.Spa.Ac3.5.1.sub.ita.iCV-MIRCrew.mkv
Format                                   : Matroska
Format version                           : Version 2
File size                                : 1.76 GiB
Duration                                 : 2 h 7 min
Overall bit rate                         : 1 982 kb/s
Encoded date                             : UTC 2016-11-07T23:57:44Z
Writing application                      : HandBrake 0.10.5 2016021100
Writing library                          : Lavf55.12.0 / Lavf55.12.0

Video
ID                                       : 1
Format                                   : AVC
Format/Info                              : Advanced Video Codec
Format profile                           : [email protected]
Format settings, CABAC                   : Yes
Format settings, ReFrames                : 4 frames
Codec ID                                 : V_MPEG4/ISO/AVC
Duration                                 : 2 h 7 min
Bit rate                                 : 1 270 kb/s
Width                                    : 720 pixels
Height                                   : 576 pixels
Display aspect ratio                     : 16:9
Frame rate mode                          : Constant
Frame rate                               : 25.000 FPS
Standard                                 : PAL
Color space                              : YUV
Chroma subsampling                       : 4:2:0
Bit depth                                : 8 bits
Scan type                                : Progressive
Bits/(Pixel*Frame)                       : 0.122
Stream size                              : 1.10 GiB (62%)
Writing library                          : x264 core 142 r2479 dd79a61
Encoding settings                        : cabac=1 / ref=1 / deblock=1:0:0 / analyse=0x1:0x111 / me=hex / subme=2 / psy=1 / psy_rd=1.00:0.00 / mixed_ref=0 / me_range=16 / chroma_me=1 / trellis=0 / 8x8dct=0 / cqm=0 / deadzone=21,11 / fast_pskip=1 / chroma_qp_offset=0 / threads=6 / lookahead_threads=2 / sliced_threads=0 / nr=0 / decimate=1 / interlaced=0 / bluray_compat=0 / constrained_intra=0 / bframes=3 / b_pyramid=2 / b_adapt=1 / b_bias=0 / direct=1 / weightb=1 / open_gop=0 / weightp=1 / keyint=250 / keyint_min=25 / scenecut=40 / intra_refresh=0 / rc_lookahead=10 / rc=2pass / mbtree=1 / bitrate=1270 / ratetol=1.0 / qcomp=0.60 / qpmin=0 / qpmax=69 / qpstep=4 / cplxblur=20.0 / qblur=0.5 / vbv_maxrate=20000 / vbv_bufsize=25000 / nal_hrd=none / filler=0 / ip_ratio=1.40 / aq=1:1.00
Default                                  : Yes
Forced                                   : No
Color range                              : Limited
Color primaries                          : BT.601 PAL
Transfer characteristics                 : BT.709
Matrix coefficients                      : BT.601

Audio #1
ID                                       : 2
Format                                   : AC-3
Format/Info                              : Audio Coding 3
Format profile                           : Dolby Digital
Mode extension                           : CM (complete main)
Format settings, Endianness              : Big
Codec ID                                 : A_AC3
Duration                                 : 2 h 7 min
Bit rate mode                            : Constant
Bit rate                                 : 448 kb/s
Channel(s)                               : 2 channels
Channel positions                        : Front: L R
Sampling rate                            : 48.0 kHz
Frame rate                               : 31.250 FPS (1536 spf)
Bit depth                                : 16 bits
Compression mode                         : Lossy
Delay relative to video                  : -5 ms
Stream size                              : 408 MiB (23%)
Title                                    : Stereo
Language                                 : Italian
Default                                  : Yes
Forced                                   : No

Audio #2
ID                                       : 3
Format                                   : AC-3
Format/Info                              : Audio Coding 3
Mode extension                           : CM (complete main)
Format settings, Endianness              : Big
Codec ID                                 : A_AC3
Duration                                 : 2 h 7 min
Bit rate mode                            : Constant
Bit rate                                 : 256 kb/s
Channel(s)                               : 2 channels
Channel positions                        : Front: L R
Sampling rate                            : 48.0 kHz
Frame rate                               : 31.250 FPS (1536 spf)
Bit depth                                : 16 bits
Compression mode                         : Lossy
Delay relative to video                  : -5 ms
Stream size                              : 233 MiB (13%)
Title                                    : Stereo
Language                                 : Spanish
Default                                  : No
Forced                                   : No

Text #1
ID                                       : 4
Format                                   : VobSub
Codec ID                                 : S_VOBSUB
Codec ID/Info                            : Picture based subtitle format used on DVDs
Language                                 : Italian
Default                                  : No
Forced                                   : No

Text #2
ID                                       : 5
Format                                   : VobSub
Codec ID                                 : S_VOBSUB
Codec ID/Info                            : Picture based subtitle format used on DVDs
Default                                  : No
Forced                                   : No

Menu
00:00:00.000                             : :Chapter 1
00:05:05.500                             : :Chapter 2
00:12:26.420                             : :Chapter 3
00:19:58.700                             : :Chapter 4
00:31:16.700                             : :Chapter 5
00:38:20.460                             : :Chapter 6
00:46:11.260                             : :Chapter 7
00:53:41.180                             : :Chapter 8
01:03:31.900                             : :Chapter 9
01:10:05.180                             : :Chapter 10
01:20:32.940                             : :Chapter 11
01:23:48.820                             : :Chapter 12
01:31:00.060                             : :Chapter 13
01:45:45.900                             : :Chapter 14
01:51:06.580                             : :Chapter 15
01:57:07.220                             : :Chapter 16






[/center]
Info: Per scaricare devi usare un client come uTorrent o Transmission
AnnounceURL
udp://tracker.coppersurfer.tk:6969/announce
Hash 6b89dcc7e4d7e0f04e45dd151eac32321e5d27ec
Peers seeds: 45 , leech: 21
Size 4.34 GB
Completato 402x
Aggiunto 23.11.16 - 17:11:22
Uploader   BaMax71
Votazione (Voti: 0)


Condividi questo bittorrent:


html/blog:


bbcode/forum:




Aggiungi Commento


counter