Loading...
 * Dettagli Torrent   globale  | Commenti (0) 


- Accadde.Al.Penitenziario.(1955).H264.Ita.Ac3.5.1.iCV-MIRCrew -


Download via torrent:
Categoria bittorrent BDRip
Descrizione
Accadde.Al.Penitenziario.(1955).H264.Ita.Ac3.5.1.iCV-MIRCrew

[center]

[color=red][b]
NO FOUND ONLY ORIGINAL RELEASE





For select audio use VLC or dvd player home

[size=36pt]Accadde Al Penitenziario

(1955)[/size]









   DATA USCITA: 1954
   GENERE: Commedia
   ANNO: 1954
   REGIA: Giorgio Bianchi
   SCENEGGIATURA: Ruggero Maccari, Ettore Scola, Giovanni Grimaldi
   FOTOGRAFIA: Tonino Delli Colli
   MONTAGGIO: Adriana Novelli
   MUSICHE: Nino Rota
   PRODUZIONE: FELICE ZAPPULLA PER FORTUNIA FILM
   DISTRIBUZIONE: Titanus
   PAESE: ITA
   DURATA: 95 Min



Aldo Fabrizi, Alberto Sordi, Mara Berni, Walter Chiari, Peppino De Filippo, Nino Besozzi, Mario Riva, Riccardo Billi, Turi Pandolfini, Enrico Luzi, Carlo Romano, Memmo Carotenuto, Ciccio Barbi, Mino Doro, Ignazio Balsamo, Attilio Bosisio, Lianella Carell, Natale Cirino, Augusto Di Giovanni, Eugenio Galadini, Flora Lillo, Antonio Nicotra, Attilio Rapisarda



Cesare, secondino in un penitenziario, è un uomo bonario, che cerca di aiutare i detenuti. La sua bontà gli procura spesso dei guai, ma Cesare non se ne preoccupa e si consola tenendo una specie di diario, nel quale vengono annotate le vicende dei prigionieri a lui più cari. Tra questi c'è Walter, il giovane ed elegante commesso di una gioielleria, che per il suo temperamento romantico e il suo carattere, si lascia raggirare da una bella truffatrice. Questa, con uno stratagemma, gli sottrae un gioiello prezioso. La buona fede del giovane però non viene riconosciuta e finisce in prigione. Più tardi la donna, pentita, restituisce il gioiello. L'innocenza di Walter non può più essere messa in dubbio: per i due protagonisti della vicenda si prospetta un futuro roseo. C'è poi il caso di Peppino, uno spostato, per il quale il carcere è un soggiorno ideale dove può condurre una vita tranquilla e spensierata: per conquistarselo architetta un divertente imbroglio. Diversa è la vicenda di Giulio, un fannullone, che alza volentieri il gomito. Essendo in preda ai fumi del vino, viene coinvolto, senza saperlo, nell'impresa notturna di una banda di ladri, di cui si pensa sia un componente. Anche per lui scoccherà l'ora della giusta liberazione; ma la lezione non gli è servita e Cesare se lo troverà una sera di nuovo ubriaco in un autobus e dovrà nuovamente prendersene cura.



Cesare, jailer in a prison, is a good-natured man, who tries to help the prisoners. His goodness brings him into trouble often, but Caesar does not care and is consoled by holding a kind of diary, in which are noted the stories of prisoners most dear to him. Among them is Walter, the young and stylish committed to a jeweler, who for his romantic temperament and character, is duped by a beautiful grifter. This, by stratagem, subtracts a precious jewel. The good faith of the young, however, is not recognized, and ends up in prison. Later the woman, repentant, returns the jewel. The innocence of Walter can no longer be doubted: the two protagonists of the story promises a bright future. Then there is the case of Peppino, one moved, for whom prison is an ideal stay where it may lead a quiet and carefree life for conquistarselo architect a fun cheating. Different is the story of Julius, a slacker, raising his elbow happily. Being prey to the fumes of wine, he is involved, without knowing it, in the undertaking night a gang of thieves, which is thought to be a component. Even for him will shoot the hour of liberation right; but the lesson is not served and Caesar if he will find a new drunken evening in a bus and will have to re-take care.













Code

General
Unique ID                                : 145154903969521292621497844117393846126 (0x6D33D14F152887FDC7BBA197D7DB2F6E)
Complete name                            : Accadde.Al.Penitenziario.(1955).H264.Ita.Ac3.5.1.iCV-MIRCrew.mkv
Format                                   : Matroska
Format version                           : Version 2
File size                                : 1 001 MiB
Duration                                 : 1 h 31 min
Overall bit rate                         : 1 534 kb/s
Encoded date                             : UTC 2016-11-12T20:09:40Z
Writing application                      : HandBrake 0.10.5 2016021100
Writing library                          : Lavf55.12.0 / Lavf55.12.0

Video
ID                                       : 1
Format                                   : AVC
Format/Info                              : Advanced Video Codec
Format profile                           : [email protected]
Format settings, CABAC                   : Yes
Format settings, ReFrames                : 4 frames
Codec ID                                 : V_MPEG4/ISO/AVC
Duration                                 : 1 h 31 min
Bit rate                                 : 1 270 kb/s
Width                                    : 712 pixels
Height                                   : 538 pixels
Display aspect ratio                     : 4:3
Frame rate mode                          : Constant
Frame rate                               : 25.000 FPS
Color space                              : YUV
Chroma subsampling                       : 4:2:0
Bit depth                                : 8 bits
Scan type                                : Progressive
Bits/(Pixel*Frame)                       : 0.133
Stream size                              : 814 MiB (81%)
Writing library                          : x264 core 142 r2479 dd79a61
Encoding settings                        : cabac=1 / ref=1 / deblock=1:0:0 / analyse=0x1:0x111 / me=hex / subme=2 / psy=1 / psy_rd=1.00:0.00 / mixed_ref=0 / me_range=16 / chroma_me=1 / trellis=0 / 8x8dct=0 / cqm=0 / deadzone=21,11 / fast_pskip=1 / chroma_qp_offset=0 / threads=6 / lookahead_threads=2 / sliced_threads=0 / nr=0 / decimate=1 / interlaced=0 / bluray_compat=0 / constrained_intra=0 / bframes=3 / b_pyramid=2 / b_adapt=1 / b_bias=0 / direct=1 / weightb=1 / open_gop=0 / weightp=1 / keyint=250 / keyint_min=25 / scenecut=40 / intra_refresh=0 / rc_lookahead=10 / rc=2pass / mbtree=1 / bitrate=1270 / ratetol=1.0 / qcomp=0.60 / qpmin=0 / qpmax=69 / qpstep=4 / cplxblur=20.0 / qblur=0.5 / vbv_maxrate=20000 / vbv_bufsize=25000 / nal_hrd=none / filler=0 / ip_ratio=1.40 / aq=1:1.00
Default                                  : Yes
Forced                                   : No
Color range                              : Limited
Color primaries                          : BT.601 PAL
Transfer characteristics                 : BT.709
Matrix coefficients                      : BT.601

Audio
ID                                       : 2
Format                                   : AC-3
Format/Info                              : Audio Coding 3
Mode extension                           : CM (complete main)
Format settings, Endianness              : Big
Codec ID                                 : A_AC3
Duration                                 : 1 h 31 min
Bit rate mode                            : Constant
Bit rate                                 : 256 kb/s
Channel(s)                               : 1 channel
Channel positions                        : Front: C
Sampling rate                            : 48.0 kHz
Frame rate                               : 31.250 FPS (1536 spf)
Bit depth                                : 16 bits
Compression mode                         : Lossy
Delay relative to video                  : -5 ms
Stream size                              : 167 MiB (17%)
Title                                    : Mono
Language                                 : Italian
Default                                  : Yes
Forced                                   : No

Text
ID                                       : 3
Format                                   : VobSub
Codec ID                                 : S_VOBSUB
Codec ID/Info                            : Picture based subtitle format used on DVDs
Language                                 : Italian
Default                                  : No
Forced                                   : No

Menu
00:00:00.000                             : :Chapter 1
00:06:21.520                             : :Chapter 2
00:14:02.880                             : :Chapter 3
00:20:30.560                             : :Chapter 4
00:25:44.040                             : :Chapter 5
00:29:26.800                             : :Chapter 6
00:38:47.600                             : :Chapter 7
00:44:56.040                             : :Chapter 8
00:54:23.320                             : :Chapter 9
00:58:07.080                             : :Chapter 10
01:02:48.120                             : :Chapter 11
01:08:53.600                             : :Chapter 12
01:13:17.520                             : :Chapter 13
01:18:49.680                             : :Chapter 14
01:25:03.080                             : :Chapter 15






[/center]
Info: Per scaricare devi usare un client come uTorrent o Transmission
AnnounceURL
udp://tracker.coppersurfer.tk:6969/announce
Hash da2ad237cfd913b7158448098eebcc7907733374
Peers seeds: 19 , leech: 7
Size 0.98 GB
Completato 240x
Aggiunto 23.11.16 - 17:11:42
Uploader   BaMax71
Votazione (Voti: 0)


Condividi questo bittorrent:


html/blog:


bbcode/forum:




Aggiungi Commento


counter