Loading...
 * Dettagli Torrent   globale  | Commenti (0) 


- Fuga.Da.Alcatraz.(1979).H264.Ita.Eng.Fra.Spa.Ac3.2.0.multi.sub.iCV-MIRCrew -


Download via torrent:
Categoria bittorrent BDRip
Descrizione
Fuga.Da.Alcatraz.(1979).H264.Ita.Eng.Fra.Spa.Ac3.2.0.multi.sub.iCV-MIRCrew

[center]

[color=red][b]
NO FOUND ONLY ORIGINAL RELEASE





For select audio use VLC or dvd player home

[size=36pt]Fuga Da Alcatraz

(1979)[/size]









   DATA USCITA: 1979
   GENERE: Drammatico
   ANNO: 1979
   REGIA: Don Siegel
   SCENEGGIATURA: Richard Tuggle
   FOTOGRAFIA: Bruce Surtees
   MONTAGGIO: Ferris Webster
   MUSICHE: Jerry Fielding
   PRODUZIONE: THE MALPASO COMPANY, PARAMOUNT PICTURES
   DISTRIBUZIONE: Paramount
   PAESE: USA
   DURATA: 112 Min



Clint Eastwood, Patrick McGoohan, Roberts Blossom, Jack Thibeau, Fred Ward, Don Michaelian, Frank Ronzio, Don Siegel, Madison Arnold, Bob Balhatchet, Paul Benjamin, Stephen Bradley, Blair Burrows, David Cryer, Bruce M. Fischer, Larry Hankin, Ray K. Goman, Matthew J. Locricchio, Ron Vernan, Fred Stuthman



Frank Morris, reo di molte fughe dalle carceri statunitensi, viene trasferito al penitenziario di Alcatraz, denominato "The Rock" e famoso per le condizioni che vi rendevano impossibile le evasioni. Benchè di carattere chiuso, Morris fa alcune amicizie: Doc, il pittore timido che si taglia le dita di una mano quando gli tolgono il permesso di pitturare; Litmus, un italiano che si fa chiamare "Al Capone"; il negro English che apprezza il nuovo arrivato e lo protegge, Clarley, l'indeciso che non giungerà all'appuntamento della fuga. Frank, inoltre, ben presto dovrà rilevare la durezza del carcere speciale e la disumanità del suo direttore. Quando al penitenziario pervengono i fratelli Clearence e John Anglin, già conosciuti altrove, Morris si decide e propone un piano di fuga che viene minuziosamente realizzato. Quando la fuga dei tre viene scoperta, scatta il dispositivo di ricerca che non approda a nulla. Il direttore, che preferisce sostenere l'annegamento nella baia dei fuggitivi, viene richiamato a Washington e la prigione, smantellata, diviene un curioso centro di attrazione turistica.



Frank Morris, guilty of many leaks in US prisons, was transferred to Alcatraz penitentiary, called "The Rock" and famous for the conditions that made it impossible escapes. Though the closed nature, Morris makes some friendships: Doc, the painter shy that you cut the fingers of one hand when they are taking their permission to paint; Litmus, an Italian who calls himself "Al Capone"; the Negro Inglese who appreciates the newcomer and protects it, Clarley, the undecided who do not come to the appointment of the escape. Frank also soon will have to detect the severity of the special prison and the inhumanity of its director. When the penitentiary received by the brothers Clearence and John Anglin, already known elsewhere, Morris decides and proposes an escape plan that is meticulously made. When the escape of the three is discovered, click the search device that goes nowhere. The director, who prefers to support the drowning in the bay of the fugitives, was recalled to Washington and prison, dismantled, it becomes a curious tourist attraction center.













Code

General
Unique ID                                : 177016965612140472834907894381219561058 (0x852C3A3BB7609783CC33397CDCF23E62)
Complete name                            : Fuga.Da.Alcatraz.(1979).H264.Ita.Eng.Fra.Spa.Ac3.2.0.multi.sub.iCV-MIRCrew.mkv
Format                                   : Matroska
Format version                           : Version 2
File size                                : 1.74 GiB
Duration                                 : 1 h 47 min
Overall bit rate                         : 2 323 kb/s
Encoded date                             : UTC 2016-11-12T20:51:46Z
Writing application                      : HandBrake 0.10.5 2016021100
Writing library                          : Lavf55.12.0 / Lavf55.12.0

Video
ID                                       : 1
Format                                   : AVC
Format/Info                              : Advanced Video Codec
Format profile                           : [email protected]
Format settings, CABAC                   : Yes
Format settings, ReFrames                : 4 frames
Codec ID                                 : V_MPEG4/ISO/AVC
Duration                                 : 1 h 47 min
Bit rate                                 : 1 270 kb/s
Width                                    : 702 pixels
Height                                   : 576 pixels
Display aspect ratio                     : 1.733
Frame rate mode                          : Constant
Frame rate                               : 25.000 FPS
Color space                              : YUV
Chroma subsampling                       : 4:2:0
Bit depth                                : 8 bits
Scan type                                : Progressive
Bits/(Pixel*Frame)                       : 0.126
Stream size                              : 961 MiB (54%)
Writing library                          : x264 core 142 r2479 dd79a61
Encoding settings                        : cabac=1 / ref=1 / deblock=1:0:0 / analyse=0x1:0x111 / me=hex / subme=2 / psy=1 / psy_rd=1.00:0.00 / mixed_ref=0 / me_range=16 / chroma_me=1 / trellis=0 / 8x8dct=0 / cqm=0 / deadzone=21,11 / fast_pskip=1 / chroma_qp_offset=0 / threads=6 / lookahead_threads=2 / sliced_threads=0 / nr=0 / decimate=1 / interlaced=0 / bluray_compat=0 / constrained_intra=0 / bframes=3 / b_pyramid=2 / b_adapt=1 / b_bias=0 / direct=1 / weightb=1 / open_gop=0 / weightp=1 / keyint=250 / keyint_min=25 / scenecut=40 / intra_refresh=0 / rc_lookahead=10 / rc=2pass / mbtree=1 / bitrate=1270 / ratetol=1.0 / qcomp=0.60 / qpmin=0 / qpmax=69 / qpstep=4 / cplxblur=20.0 / qblur=0.5 / vbv_maxrate=20000 / vbv_bufsize=25000 / nal_hrd=none / filler=0 / ip_ratio=1.40 / aq=1:1.00
Default                                  : Yes
Forced                                   : No
Color range                              : Limited
Color primaries                          : BT.601 PAL
Transfer characteristics                 : BT.709
Matrix coefficients                      : BT.601

Audio #1
ID                                       : 2
Format                                   : AC-3
Format/Info                              : Audio Coding 3
Mode extension                           : CM (complete main)
Format settings, Endianness              : Big
Codec ID                                 : A_AC3
Duration                                 : 1 h 47 min
Bit rate mode                            : Constant
Bit rate                                 : 256 kb/s
Channel(s)                               : 2 channels
Channel positions                        : Front: L R
Sampling rate                            : 48.0 kHz
Frame rate                               : 31.250 FPS (1536 spf)
Bit depth                                : 16 bits
Compression mode                         : Lossy
Delay relative to video                  : -5 ms
Stream size                              : 196 MiB (11%)
Title                                    : Stereo
Language                                 : Italian
Default                                  : Yes
Forced                                   : No

Audio #2
ID                                       : 3
Format                                   : AC-3
Format/Info                              : Audio Coding 3
Mode extension                           : CM (complete main)
Format settings, Endianness              : Big
Codec ID                                 : A_AC3
Duration                                 : 1 h 47 min
Bit rate mode                            : Constant
Bit rate                                 : 256 kb/s
Channel(s)                               : 2 channels
Channel positions                        : Front: L R
Sampling rate                            : 48.0 kHz
Frame rate                               : 31.250 FPS (1536 spf)
Bit depth                                : 16 bits
Compression mode                         : Lossy
Delay relative to video                  : -5 ms
Stream size                              : 196 MiB (11%)
Title                                    : Stereo
Language                                 : English
Default                                  : No
Forced                                   : No

Audio #3
ID                                       : 4
Format                                   : AC-3
Format/Info                              : Audio Coding 3
Mode extension                           : CM (complete main)
Format settings, Endianness              : Big
Codec ID                                 : A_AC3
Duration                                 : 1 h 47 min
Bit rate mode                            : Constant
Bit rate                                 : 256 kb/s
Channel(s)                               : 2 channels
Channel positions                        : Front: L R
Sampling rate                            : 48.0 kHz
Frame rate                               : 31.250 FPS (1536 spf)
Bit depth                                : 16 bits
Compression mode                         : Lossy
Delay relative to video                  : -5 ms
Stream size                              : 196 MiB (11%)
Title                                    : Stereo
Language                                 : French
Default                                  : No
Forced                                   : No

Audio #4
ID                                       : 5
Format                                   : AC-3
Format/Info                              : Audio Coding 3
Mode extension                           : CM (complete main)
Format settings, Endianness              : Big
Codec ID                                 : A_AC3
Duration                                 : 1 h 47 min
Bit rate mode                            : Constant
Bit rate                                 : 256 kb/s
Channel(s)                               : 2 channels
Channel positions                        : Front: L R
Sampling rate                            : 48.0 kHz
Frame rate                               : 31.250 FPS (1536 spf)
Bit depth                                : 16 bits
Compression mode                         : Lossy
Delay relative to video                  : -5 ms
Stream size                              : 196 MiB (11%)
Title                                    : Stereo
Language                                 : Spanish
Default                                  : No
Forced                                   : No

Text #1
ID                                       : 6
Format                                   : VobSub
Codec ID                                 : S_VOBSUB
Codec ID/Info                            : Picture based subtitle format used on DVDs
Language                                 : Greek
Default                                  : No
Forced                                   : No

Text #2
ID                                       : 7
Format                                   : VobSub
Codec ID                                 : S_VOBSUB
Codec ID/Info                            : Picture based subtitle format used on DVDs
Language                                 : English
Default                                  : No
Forced                                   : No

Text #3
ID                                       : 8
Format                                   : VobSub
Codec ID                                 : S_VOBSUB
Codec ID/Info                            : Picture based subtitle format used on DVDs
Language                                 : Spanish
Default                                  : No
Forced                                   : No

Text #4
ID                                       : 9
Format                                   : VobSub
Codec ID                                 : S_VOBSUB
Codec ID/Info                            : Picture based subtitle format used on DVDs
Language                                 : French
Default                                  : No
Forced                                   : No

Text #5
ID                                       : 10
Format                                   : VobSub
Codec ID                                 : S_VOBSUB
Codec ID/Info                            : Picture based subtitle format used on DVDs
Default                                  : No
Forced                                   : No

Text #6
ID                                       : 11
Format                                   : VobSub
Codec ID                                 : S_VOBSUB
Codec ID/Info                            : Picture based subtitle format used on DVDs
Language                                 : scr
Default                                  : No
Forced                                   : No

Text #7
ID                                       : 12
Format                                   : VobSub
Codec ID                                 : S_VOBSUB
Codec ID/Info                            : Picture based subtitle format used on DVDs
Language                                 : Italian
Default                                  : No
Forced                                   : No

Text #8
ID                                       : 13
Format                                   : VobSub
Codec ID                                 : S_VOBSUB
Codec ID/Info                            : Picture based subtitle format used on DVDs
Language                                 : Portuguese
Default                                  : No
Forced                                   : No

Menu
00:00:00.000                             : :Chapter 1
00:07:54.960                             : :Chapter 2
00:12:02.080                             : :Chapter 3
00:16:32.200                             : :Chapter 4
00:18:20.760                             : :Chapter 5
00:22:41.560                             : :Chapter 6
00:26:46.360                             : :Chapter 7
00:33:57.560                             : :Chapter 8
00:35:58.320                             : :Chapter 9
00:45:52.680                             : :Chapter 10
00:57:41.360                             : :Chapter 11
01:08:45.920                             : :Chapter 12
01:13:45.320                             : :Chapter 13
01:21:54.200                             : :Chapter 14
01:26:59.480                             : :Chapter 15
01:29:15.720                             : :Chapter 16
01:41:26.120                             : :Chapter 17






[/center]
Info: Per scaricare devi usare un client come uTorrent o Transmission
AnnounceURL
udp://tracker.coppersurfer.tk:6969/announce
Hash 5acd6192277b29d42d17bf2e9394b7b2698fe3c2
Peers seeds: 58 , leech: 20
Size 1.74 GB
Completato 490x
Aggiunto 23.11.16 - 16:11:02
Uploader   BaMax71
Votazione (Voti: 0)


Condividi questo bittorrent:


html/blog:


bbcode/forum:




Aggiungi Commento


counter