Loading...
 * Dettagli Torrent   globale  | Commenti (0) 


- La.Classe.Operaia.Va.In.Paradiso.(1971).H264.Ita.Ac3.5.1.iCV-MIRCrew -


Download via torrent:
Categoria bittorrent BDRip
Descrizione
La.Classe.Operaia.Va.In.Paradiso.(1971).H264.Ita.Ac3.5.1.iCV-MIRCrew
[center]

[color=red][b]
NO FOUND ONLY ORIGINAL RELEASE





For select audio use VLC or dvd player home

[size=36pt]La Classe Operaia Va In Paradiso

(1971)[/size]









   DATA USCITA: 1971
   GENERE: Drammatico
   ANNO: 1971
   REGIA: Elio Petri
   SCENEGGIATURA: Elio Petri, Ugo Pirro
   FOTOGRAFIA: Luigi Kuveiller, Ubaldo Terzano
   MONTAGGIO: Ruggero Mastroianni
   MUSICHE: Ennio Morricone
   PRODUZIONE: UGO TUCCI PER LA EURO INTERNATIONAL FILM
   DISTRIBUZIONE: Rarovideo
   PAESE: ITA
   DURATA: 125 Min



Gian Maria Volonté, Mariangela Melato, Luigi Diberti, Salvo Randone, Renata Zamengo, Mietta Albertini, Donato Castellaneta, Adriano Amidei Migliano, Ezio Marano, Giuseppe Fortis, Gino Pernice, Federico Scrobogna, Flavio Bucci, Lorenzo Magnolia, Antonio Mangano, Guerrino Crivello, Eugenio Fatti, Carla Mancini, Corrado Solari, Sergio Tramonti, Luigi Uzzo



Ludovico Massa, detto Lulù, operaio in una fabbrica metalmeccanica, è una sorta di campione del cottimo: nessuno dei compagni riesce a eguagliare il suo ritmo produttivo. Benvoluto dal padrone, che adegua al suo rendimento quello degli altri operai, non è troppo ben visto dai compagni di lavoro. D'altra parte, nemmeno Lulù è contento di se stesso: produce, consuma in quanto ha la macchina, il televisore, la casa piena di oggetti inutili, ma si ammazza di fatica, tanto da non aver più nemmeno la forza di avere rapporti con la donna con cui vive. Tuttavia, malgrado le visite sconfortanti che fa a un ex compagno finito dalla fabbrica in manicomio, Lulù continua a tenere i suoi ritmi massacranti di lavoro finché un giorno ci rimette un dito.



Ludovico Massa, said Lulu, a worker in a metalworking factory, is something of a champion of the piece: none of mates can match his production rate. Well-liked by his master, adapting to its performance than other workers, it is not too well received by fellow workers. On the other hand, even Lulu is happy with himself, produces, consumes as it has the car, the TV, the house full of useless objects, but it kills fatigue, so it no longer even have the strength to have intercourse with the woman with whom he lives. However, despite the discouraging visits made to a former partner ended up in a mental hospital by the factory, Lulu continues to hold its working grueling pace until one day there puts a finger.













Code

General
Unique ID                                : 293076508728763691483727679546380894120 (0xDC7C7B7F98B98333A1B7A54F7EE5BFA
Complete name                            : La.Classe.Operaia.Va.In.Paradiso.(1971).H264.Ita.Ac3.5.1.iCV-MIRCrew.mkv
Format                                   : Matroska
Format version                           : Version 2
File size                                : 1.53 GiB
Duration                                 : 1 h 50 min
Overall bit rate                         : 1 979 kb/s
Encoded date                             : UTC 2016-11-12T21:39:22Z
Writing application                      : HandBrake 0.10.5 2016021100
Writing library                          : Lavf55.12.0 / Lavf55.12.0

Video
ID                                       : 1
Format                                   : AVC
Format/Info                              : Advanced Video Codec
Format profile                           : [email protected]
Format settings, CABAC                   : Yes
Format settings, ReFrames                : 4 frames
Codec ID                                 : V_MPEG4/ISO/AVC
Duration                                 : 1 h 50 min
Bit rate                                 : 1 270 kb/s
Width                                    : 720 pixels
Height                                   : 550 pixels
Display aspect ratio                     : 1.85:1
Original display aspect ratio            : 1.85:1
Frame rate mode                          : Constant
Frame rate                               : 25.000 FPS
Color space                              : YUV
Chroma subsampling                       : 4:2:0
Bit depth                                : 8 bits
Scan type                                : Progressive
Bits/(Pixel*Frame)                       : 0.128
Stream size                              : 978 MiB (62%)
Writing library                          : x264 core 142 r2479 dd79a61
Encoding settings                        : cabac=1 / ref=1 / deblock=1:0:0 / analyse=0x1:0x111 / me=hex / subme=2 / psy=1 / psy_rd=1.00:0.00 / mixed_ref=0 / me_range=16 / chroma_me=1 / trellis=0 / 8x8dct=0 / cqm=0 / deadzone=21,11 / fast_pskip=1 / chroma_qp_offset=0 / threads=6 / lookahead_threads=2 / sliced_threads=0 / nr=0 / decimate=1 / interlaced=0 / bluray_compat=0 / constrained_intra=0 / bframes=3 / b_pyramid=2 / b_adapt=1 / b_bias=0 / direct=1 / weightb=1 / open_gop=0 / weightp=1 / keyint=250 / keyint_min=25 / scenecut=40 / intra_refresh=0 / rc_lookahead=10 / rc=2pass / mbtree=1 / bitrate=1270 / ratetol=1.0 / qcomp=0.60 / qpmin=0 / qpmax=69 / qpstep=4 / cplxblur=20.0 / qblur=0.5 / vbv_maxrate=20000 / vbv_bufsize=25000 / nal_hrd=none / filler=0 / ip_ratio=1.40 / aq=1:1.00
Default                                  : Yes
Forced                                   : No
Color range                              : Limited
Color primaries                          : BT.601 PAL
Transfer characteristics                 : BT.709
Matrix coefficients                      : BT.601

Audio #1
ID                                       : 2
Format                                   : AC-3
Format/Info                              : Audio Coding 3
Format profile                           : Dolby Digital
Mode extension                           : CM (complete main)
Format settings, Endianness              : Big
Codec ID                                 : A_AC3
Duration                                 : 1 h 50 min
Bit rate mode                            : Constant
Bit rate                                 : 448 kb/s
Channel(s)                               : 2 channels
Channel positions                        : Front: L R
Sampling rate                            : 48.0 kHz
Frame rate                               : 31.250 FPS (1536 spf)
Bit depth                                : 16 bits
Compression mode                         : Lossy
Delay relative to video                  : -5 ms
Stream size                              : 355 MiB (23%)
Title                                    : Stereo
Language                                 : Italian
Default                                  : Yes
Forced                                   : No

Audio #2
ID                                       : 3
Format                                   : AC-3
Format/Info                              : Audio Coding 3
Mode extension                           : CM (complete main)
Format settings, Endianness              : Big
Codec ID                                 : A_AC3
Duration                                 : 1 h 50 min
Bit rate mode                            : Constant
Bit rate                                 : 256 kb/s
Channel(s)                               : 2 channels
Channel positions                        : Front: L R
Sampling rate                            : 48.0 kHz
Frame rate                               : 31.250 FPS (1536 spf)
Bit depth                                : 16 bits
Compression mode                         : Lossy
Delay relative to video                  : -5 ms
Stream size                              : 203 MiB (13%)
Title                                    : Stereo
Language                                 : Italian
Default                                  : No
Forced                                   : No

Menu
00:00:00.000                             : :Chapter 1
00:11:35.720                             : :Chapter 2
00:19:50.120                             : :Chapter 3
00:24:00.920                             : :Chapter 4
00:30:39.920                             : :Chapter 5
00:34:24.920                             : :Chapter 6
00:41:59.720                             : :Chapter 7
00:49:16.520                             : :Chapter 8
00:54:18.920                             : :Chapter 9
01:01:11.120                             : :Chapter 10
01:07:15.320                             : :Chapter 11
01:13:50.120                             : :Chapter 12
01:19:47.720                             : :Chapter 13
01:28:50.720                             : :Chapter 14
01:44:05.120                             : :Chapter 15






[/center]
Info: Per scaricare devi usare un client come uTorrent o Transmission
AnnounceURL
udp://tracker.coppersurfer.tk:6969/announce
Hash 36f34e4521fb0f8904dd9f948efd7c9f881c2204
Peers seeds: 44 , leech: 10
Size 1.53 GB
Completato 388x
Aggiunto 23.11.16 - 16:11:40
Uploader   BaMax71
Votazione (Voti: 0)


Condividi questo bittorrent:


html/blog:


bbcode/forum:




Aggiungi Commento


counter