Loading...
 * Dettagli Torrent   globale  | Commenti (0) 


- The A-Team Stagione 4 completa (1985-1986).H264.Italian.English.Ac3.2.0.iCV-MIRCrew -


Download via torrent:
Categoria bittorrent BDRip
Descrizione
The A-Team Stagione 4 completa (1985-1986).H264.Italian.English.Ac3.2.0.iCV-MIRCrew

[center]

[color=red][b]
NO FOUND ONLY ORIGINAL RELEASE





For select audio use VLC or dvd player home

[size=36pt]The A-Team Stagione 4 completa

(1985-1986)[/size]







   DATA USCITA: 1985-1986
   GENERE: Azione
   ANNO: 1985-1986
   REGIA: Stephen J. Cannell , Frank Lupo
 
   SCENEGGIATURA: Frank E. Johnson
   FOTOGRAFIA: Arthur R. Botham
   MONTAGGIO: David Latham
   MUSICHE: Pete Carpenter , Mike Post
   PRODUZIONE: John Ashley
   DISTRIBUZIONE: Universal Pictures
   PAESE: USA
   DURATA: 1058 Min



George Peppard , Dwight Schultz Dwight Schultz , Mr. T , Dirk Benedict



Un commando di ex-combattenti della guerra del Vietnam chiamato A-Team (Squadra A), un tempo appartenenti al 5th Special Forces Group dell'esercito degli Stati Uniti, viene accusato ingiustamente di aver rapinato la banca di Hanoi. Evasi in maniera rocambolesca, vivono in fuga, ricercati e braccati dalle autorità militari per un reato che non hanno mai commesso.

I componenti della squadra sopravvivono prestando servizio come mercenari e venendo, nella quasi totalità degli episodi, assoldati da persone o da gruppi di persone oppresse da situazioni d'ingiustizia o di pericolo.

Grazie alle qualità militari e umane dell'A-Team, ogni episodio si risolve in maniera definitiva a favore dei più deboli. Pur essendo considerati mercenari dagli altri personaggi della serie, i membri dell'A-Team sono schierati sempre dalla parte del bene.



A commando of veterans of the Vietnam War called A-Team (Team A), once belonging to the 5th Special Forces Group US Army, he is falsely accused of robbing the Bank of Hanoi. Escaped in a daring, living on the run, wanted and hunted down by the military authorities for a crime they did not commit.

The team members survive serving as mercenaries and coming in almost all of the episodes, hired by persons or groups of people oppressed by situations of injustice or danger.

Through the military and human qualities of the A-Team, each episode is resolved definitively in favor of the weakest. Despite being regarded as mercenaries by the other characters in the series, The A-Team members are getting themselves on the side of good.














Code

General
Unique ID                                : 314023368539032856056743107605822579481 (0xEC3EB36C42925B6C2FE2F78DC7D22319)
Complete name                            : The A-Team Stagione 4 completa (1985-1986).H264.Italian.English.Ac3.2.0.iCV-MIRCrew
.mkv
Format                                   : Matroska
Format version                           : Version 2
File size                                : 552 MiB
Duration                                 : 43 min 11 s
Overall bit rate                         : 1 787 kb/s
Encoded date                             : UTC 2016-11-08T20:06:29Z
Writing application                      : HandBrake 0.10.5 2016021100
Writing library                          : Lavf55.12.0 / Lavf55.12.0

Video
ID                                       : 1
Format                                   : AVC
Format/Info                              : Advanced Video Codec
Format profile                           : [email protected]
Format settings, CABAC                   : Yes
Format settings, ReFrames                : 4 frames
Codec ID                                 : V_MPEG4/ISO/AVC
Duration                                 : 43 min 11 s
Bit rate                                 : 1 270 kb/s
Width                                    : 702 pixels
Height                                   : 538 pixels
Display aspect ratio                     : 4:3
Frame rate mode                          : Constant
Frame rate                               : 25.000 FPS
Color space                              : YUV
Chroma subsampling                       : 4:2:0
Bit depth                                : 8 bits
Scan type                                : Progressive
Bits/(Pixel*Frame)                       : 0.135
Stream size                              : 383 MiB (69%)
Writing library                          : x264 core 142 r2479 dd79a61
Encoding settings                        : cabac=1 / ref=1 / deblock=1:0:0 / analyse=0x1:0x111 / me=hex / subme=2 / psy=1 / psy_rd=1.00:0.00 / mixed_ref=0 / me_range=16 / chroma_me=1 / trellis=0 / 8x8dct=0 / cqm=0 / deadzone=21,11 / fast_pskip=1 / chroma_qp_offset=0 / threads=6 / lookahead_threads=2 / sliced_threads=0 / nr=0 / decimate=1 / interlaced=0 / bluray_compat=0 / constrained_intra=0 / bframes=3 / b_pyramid=2 / b_adapt=1 / b_bias=0 / direct=1 / weightb=1 / open_gop=0 / weightp=1 / keyint=250 / keyint_min=25 / scenecut=40 / intra_refresh=0 / rc_lookahead=10 / rc=2pass / mbtree=1 / bitrate=1270 / ratetol=1.0 / qcomp=0.60 / qpmin=0 / qpmax=69 / qpstep=4 / cplxblur=20.0 / qblur=0.5 / vbv_maxrate=20000 / vbv_bufsize=25000 / nal_hrd=none / filler=0 / ip_ratio=1.40 / aq=1:1.00
Default                                  : Yes
Forced                                   : No
Color range                              : Limited
Color primaries                          : BT.601 PAL
Transfer characteristics                 : BT.709
Matrix coefficients                      : BT.601

Audio #1
ID                                       : 2
Format                                   : AC-3
Format/Info                              : Audio Coding 3
Format profile                           : Dolby Digital
Mode extension                           : CM (complete main)
Format settings, Endianness              : Big
Codec ID                                 : A_AC3
Duration                                 : 43 min 11 s
Bit rate mode                            : Constant
Bit rate                                 : 256 kb/s
Channel(s)                               : 2 channels
Channel positions                        : Front: L R
Sampling rate                            : 48.0 kHz
Frame rate                               : 31.250 FPS (1536 spf)
Bit depth                                : 16 bits
Compression mode                         : Lossy
Delay relative to video                  : -5 ms
Stream size                              : 79.1 MiB (14%)
Title                                    : Stereo
Language                                 : Italian
Default                                  : Yes
Forced                                   : No

Audio #2
ID                                       : 3
Format                                   : AC-3
Format/Info                              : Audio Coding 3
Format profile                           : Dolby Digital
Mode extension                           : CM (complete main)
Format settings, Endianness              : Big
Codec ID                                 : A_AC3
Duration                                 : 43 min 11 s
Bit rate mode                            : Constant
Bit rate                                 : 256 kb/s
Channel(s)                               : 2 channels
Channel positions                        : Front: L R
Sampling rate                            : 48.0 kHz
Frame rate                               : 31.250 FPS (1536 spf)
Bit depth                                : 16 bits
Compression mode                         : Lossy
Delay relative to video                  : -5 ms
Stream size                              : 79.1 MiB (14%)
Title                                    : Stereo
Language                                 : English
Default                                  : No
Forced                                   : No

Menu
00:00:00.000                             : :Chapter 1
00:01:34.360                             : :Chapter 2
00:11:01.360                             : :Chapter 3
00:19:59.200                             : :Chapter 4
00:27:33.040                             : :Chapter 5
00:33:30.040                             : :Chapter 6






[/center]
Info: Per scaricare devi usare un client come uTorrent o Transmission
AnnounceURL
udp://tracker.coppersurfer.tk:6969/announce
Hash 18dd680a6ff3318cf6344c29989f77605898b76a
Peers seeds: 25 , leech: 45
Size 13.14 GB
Completato 193x
Aggiunto 21.11.16 - 19:11:04
Uploader   BaMax71
Votazione (Voti: 0)


Condividi questo bittorrent:


html/blog:


bbcode/forum:




Aggiungi Commento


counter