* Dettagli Torrent   globale  | Commenti (0) 


- The Green Inferno (2013) BDRip 720p HEVC ITA ENG AC3 ITA ENG Sub PirateMKV.mkv -


Download via torrent:
Categoria bittorrent BDRip
Descrizione
[center]
[size=80pt]PRESENTA[/size]

[size=36pt]The Green Inferno[/size]



[size=36pt]SCHEDA[/size]

Titolo: The Green Inferno
Nazione: Chile, USA
Anno: 2013
Genere: Adventure, Horror
Durata: 100 min
Regia: Eli Roth
Cast: Lorenza Izzo, Ariel Levy, Daryl Sabara, Kirby Bliss Blanton


[size=36pt]RECENSIONE[/size]

Justine è la figlia di un importante membro dell'ONU e vive dentro una campana di vetro, una buona occasione per uscirne è partecipare all'azione di un gruppo di attivisti che manifestano davanti casa sua: andare nella foresta amazzonica, incatenarsi a degli alberi che stanno per essere abbattuti e riprendere tutto con dei cellulari in modo da creare consapevolezza nel mondo su quanto stia succedendo. Parte così alla volta del Perù con un folto gruppo di suoi coetanei di città ma terminata l'azione, nel volo di ritorno, un malfunzionamento li fa precipitare in mezzo a quella foresta che vogliono proteggere, proprio nelle braccia di una tribù di cannibali i quali non vedono di buon occhio i bianchi.


[size=36pt]IMMAGINI[/size]


[size=36pt]DATI TECNICI[/size]

[spoiler]General
Unique ID : 225660917717447318303102797753243988395 (0xA9C4B63D2D6C72CEB0C808E1DEECF1AB)
Complete name : C:\Users\Administrator\Downloads\greeninferno\The Green Inferno (2013) BDRip 720p HEVC ITA ENG AC3 ITA ENG Sub PirateMKV.mkv
Format : Matroska
Format version : Version 4 / Version 2
File size : 2.30 GiB
Duration : 1h 40mn
Overall bit rate : 3 277 Kbps
Movie name : The Green Inferno (2013) - PirateMKV
Encoded date : UTC 2016-02-02 08:26:32
Writing application : mkvmerge v8.8.0 ('Wind at my back') 64bit
Writing library : libebml v1.3.3 libmatroska v1.4.4 / Lavf57.20.100

Video
ID : 1
Format : HEVC
Format/Info : High Efficiency Video Coding
Format profile : [email protected]@Main
Codec ID : V_MPEGH/ISO/HEVC
Duration : 1h 40mn
Bit rate : 2 443 Kbps
Width : 1 280 pixels
Height : 534 pixels
Display aspect ratio : 2.40:1
Original display aspect ratio : 2.40:1
Frame rate mode : Constant
Frame rate : 23.976 (24000/1001) fps
Color space : YUV
Chroma subsampling : 4:2:0
Bit depth : 8 bits
Bits/(Pixel*Frame) : 0.149
Stream size : 1.72 GiB (75%)
Writing library : x265 1.8 1-5dcc9d3a928c400b:[Windows][GCC 5.2.0][64 bit] 8bit
Encoding settings : wpp / ctu=64 / min-cu-size=8 / max-tu-size=32 / tu-intra-depth=3 / tu-inter-depth=3 / me=2 / subme=4 / merange=57 / no-rect / no-amp / max-merge=3 / temporal-mvp / no-early-skip / rdpenalty=0 / no-tskip / no-tskip-fast / strong-intra-smoothing / no-lossless / no-cu-lossless / no-constrained-intra / fast-intra / open-gop / no-temporal-layers / interlace=0 / keyint=250 / min-keyint=23 / scenecut=40 / rc-lookahead=40 / lookahead-slices=0 / bframes=8 / bframe-bias=0 / b-adapt=2 / ref=5 / limit-refs=0 / weightp / weightb / aq-mode=1 / qg-size=32 / aq-strength=2.00 / cbqpoffs=0 / crqpoffs=0 / rd=4 / psy-rd=1.00 / rdoq-level=0 / psy-rdoq=0.00 / signhide / deblock=-1:-1 / sao / no-sao-non-deblock / b-pyramid / no-cutree / rc=crf / crf=19.7 / qcomp=0.60 / qpmin=0 / qpmax=51 / qpstep=4 / ipratio=1.40 / pbratio=1.30
Language : English
Default : Yes
Forced : No
Color range : Limited
Matrix coefficients : BT.709

Audio #1
ID : 2
Format : AC-3
Format/Info : Audio Coding 3
Mode extension : CM (complete main)
Format settings, Endianness : Big
Codec ID : A_AC3
Duration : 1h 40mn
Bit rate mode : Constant
Bit rate : 192 Kbps
Channel(s) : 2 channels
Channel positions : Front: L R
Sampling rate : 48.0 KHz
Frame rate : 31.250 fps (1536 spf)
Compression mode : Lossy
Delay relative to video : 4ms
Stream size : 138 MiB (6%)
Title : AC3 2.0 (WEB-DL Resync)
Language : Italian
Default : Yes
Forced : No

Audio #2
ID : 3
Format : AC-3
Format/Info : Audio Coding 3
Mode extension : CM (complete main)
Format settings, Endianness : Big
Codec ID : A_AC3
Duration : 1h 40mn
Bit rate mode : Constant
Bit rate : 640 Kbps
Channel(s) : 6 channels
Channel positions : Front: L C R, Side: L R, LFE
Sampling rate : 48.0 KHz
Frame rate : 31.250 fps (1536 spf)
Compression mode : Lossy
Delay relative to video : 4ms
Stream size : 461 MiB (20%)
Title : AC3 5.1
Language : English
Default : No
Forced : No

Text #1
ID : 4
Format : UTF-8
Codec ID : S_TEXT/UTF8
Codec ID/Info : UTF-8 Plain Text
Duration : 1h 13mn
Bit rate : 1 bps
Count of elements : 31
Stream size : 889 Bytes (0%)
Title : Forced
Language : Italian
Default : Yes
Forced : Yes

Text #2
ID : 5
Format : UTF-8
Codec ID : S_TEXT/UTF8
Codec ID/Info : UTF-8 Plain Text
Duration : 1h 32mn
Bit rate : 34 bps
Count of elements : 748
Stream size : 23.3 KiB (0%)
Title : Normal
Language : Italian
Default : No
Forced : No

Text #3
ID : 6
Format : UTF-8
Codec ID : S_TEXT/UTF8
Codec ID/Info : UTF-8 Plain Text
Duration : 1h 32mn
Bit rate : 34 bps
Count of elements : 892
Stream size : 23.4 KiB (0%)
Title : Normal
Language : English
Default : No
Forced : No[/spoiler]

[size=36pt]INFO RELEASER[/size]

BANDA DISPONIBILE : 2MB
SEED FILE: 10 FONTI COMPLETE
RESEED: SI
ATTIVITA' TORRENT: H24
CONTROLLO VIRUS: SI
Info: Per scaricare devi usare un client come uTorrent o Transmission
AnnounceURL
udp://tracker.coppersurfer.tk:6969/announce
Hash b989d99f492e370a18664a2d23d368cc785c2ecd
Peers seeds: 61 , leech: 39
Size 2.62 GB
Completato 613x
Aggiunto 19.10.16 - 09:10:31
Uploader   iNcoGniTO
Votazione (Voti: 0)


Condividi questo bittorrent:


html/blog:


bbcode/forum:




Aggiungi Commento


counter