Loading...
 * Dettagli Torrent   globale  | Commenti (0) 


- Mr. Nobody (2009).H264.Italian.English.Ac3.5.1.sub.ita.iCV-MIRCrew -


Download via torrent:
Categoria bittorrent BDRip
Descrizione
Mr. Nobody (2009).H264.Italian.English.Ac3.5.1.sub.ita.iCV-MIRCrew

[center]


NO FOUND ONLY ORIGINAL RELEASE

My release is always in double track audio italian and Original audio
for select it use VLC or dvd player home
not use wmp

Mr. Nobody (2009)







   DATA USCITA: 12 maggio 2016
   GENERE: Horror , Thriller
   ANNO: 2016
   REGIA: William Brent Bell
   SCENEGGIATURA: Stacey Menear
   FOTOGRAFIA: Daniel Pearl
   MONTAGGIO: Brian Berdan
   MUSICHE: Bear McCreary
   PRODUZIONE: Huayi Brothers Media, Lakeshore Entertainment, STX Entertainment
   DISTRIBUZIONE: Eagle Pictures
   PAESE: USA
   DURATA: 98 Min



Lauren Cohan, Rupert Evans, James Russell, Jim Norton, Diana Hardcastle, Ben Robson



Nell'anno 2092, Nemo Nobody ha 117 anni ed è l'ultimo uomo destinato a morire di vecchiaia. L'umanità ha conquistato l'immortalità attraverso un continuo rinnovamento cellulare ottenuto grazie ad un processo chiamato telomerizzazione e ora il mondo guarda con curiosità il signor Nobody che si avvicina alla morte. L'ultracentenario è dunque soggetto all'attenzione mediatica della società del 2092 e sottoposto a sedute di analisi e a interviste che vogliono ricostruire la sua lunga vita.



A boy stands on a station platform as a train is about to leave. Should he go with his mother or stay with his father? Infinite possibilities arise from this decision. As long as he doesn't choose, anything is possible.










[spoiler]
General
Unique ID                                : 337183805922341657957133819166160143525 (0xFDAB3D25DA2BC5F6B356CFEFF59144A5)
Complete name                            : Mr. Nobody (2009).ita.eng.sub.ita.iCV-MIRCrew.mkv
Format                                   : Matroska
Format version                           : Version 2
File size                                : 1.96 GiB
Duration                                 : 2h 19mn
Overall bit rate                         : 2 007 Kbps
Movie name                               : Visit www.icv-crew.org
Encoded date                             : UTC 2016-09-16 17:58:11
Writing application                      : Lavf54.63.100
Writing library                          : Lavf54.63.100

Video
ID                                       : 1
Format                                   : AVC
Format/Info                              : Advanced Video Codec
Format profile                           : [email protected]
Format settings, CABAC                   : Yes
Format settings, ReFrames                : 2 frames
Codec ID                                 : V_MPEG4/ISO/AVC
Duration                                 : 2h 19mn
Bit rate                                 : 1 240 Kbps
Width                                    : 720 pixels
Height                                   : 304 pixels
Display aspect ratio                     : 2.35:1
Frame rate mode                          : Variable
Frame rate                               : 24.000 fps
Color space                              : YUV
Chroma subsampling                       : 4:2:0
Bit depth                                : 8 bits
Scan type                                : Progressive
Bits/(Pixel*Frame)                       : 0.236
Stream size                              : 1.17 GiB (60%)
Writing library                          : x264 core 130 r2273
Encoding settings                        : cabac=1 / ref=2 / deblock=1:0:0 / analyse=0x1:0x131 / me=hex / subme=7 / psy=1 / psy_rd=1.00:0.00 / mixed_ref=0 / me_range=16 / chroma_me=1 / trellis=1 / 8x8dct=0 / cqm=0 / deadzone=21,11 / fast_pskip=1 / chroma_qp_offset=-2 / threads=12 / lookahead_threads=2 / sliced_threads=0 / nr=0 / decimate=1 / interlaced=0 / bluray_compat=0 / constrained_intra=0 / bframes=3 / b_pyramid=0 / b_adapt=1 / b_bias=0 / direct=3 / weightb=1 / open_gop=0 / weightp=2 / keyint=240 / keyint_min=24 / scenecut=40 / intra_refresh=0 / rc_lookahead=40 / rc=2pass / mbtree=1 / bitrate=1240 / ratetol=1.0 / qcomp=0.60 / qpmin=10 / qpmax=69 / qpstep=4 / cplxblur=20.0 / qblur=0.5 / vbv_maxrate=24000 / vbv_bufsize=24000 / nal_hrd=none / ip_ratio=1.40 / aq=1:1.00
Language                                 : English
Default                                  : Yes
Forced                                   : No

Audio #1
ID                                       : 2
Format                                   : AC-3
Format/Info                              : Audio Coding 3
Mode extension                           : CM (complete main)
Codec ID                                 : A_AC3
Duration                                 : 2h 19mn
Bit rate mode                            : Constant
Bit rate                                 : 384 Kbps
Channel(s)                               : 6 channels
Channel positions                        : Front: L C R, Side: L R, LFE
Sampling rate                            : 48.0 KHz
Bit depth                                : 16 bits
Compression mode                         : Lossy
Delay relative to video                  : 1mn 5s
Stream size                              : 383 MiB (19%)
Title                                    : iTunes RESYNC
Language                                 : Italian
Default                                  : Yes
Forced                                   : No

Audio #2
ID                                       : 3
Format                                   : AC-3
Format/Info                              : Audio Coding 3
Mode extension                           : CM (complete main)
Codec ID                                 : A_AC3
Duration                                 : 2h 19mn
Bit rate mode                            : Constant
Bit rate                                 : 384 Kbps
Channel(s)                               : 6 channels
Channel positions                        : Front: L C R, Side: L R, LFE
Sampling rate                            : 48.0 KHz
Bit depth                                : 16 bits
Compression mode                         : Lossy
Delay relative to video                  : 1mn 5s
Stream size                              : 383 MiB (19%)
Language                                 : English
Default                                  : No
Forced                                   : No

Text #1
ID                                       : 4
Format                                   : UTF-8
Codec ID                                 : S_TEXT/UTF8
Codec ID/Info                            : UTF-8 Plain Text
Title                                    : FORCED
Language                                 : Italian
Default                                  : Yes
Forced                                   : No

Text #2
ID                                       : 5
Format                                   : UTF-8
Codec ID                                 : S_TEXT/UTF8
Codec ID/Info                            : UTF-8 Plain Text
Language                                 : Italian
Default                                  : No
Forced                                   : No

Menu
00:00:00.000                             : :
00:08:37.541                             : :
00:19:07.583                             : :
00:27:08.958                             : :
00:33:19.750                             : :
00:45:54.333                             : :
00:55:46.041                             : :
01:04:25.583                             : :
01:15:58.000                             : :
01:20:21.250                             : :
01:26:26.750                             : :
01:34:55.166                             : :
01:47:35.416                             : :
01:56:02.416                             : :
02:05:19.625                             : :
02:12:36.541                             : :
02:19:02.791                             : :



[/spoiler]

[/center]

Info: Per scaricare devi usare un client come uTorrent o Transmission
AnnounceURL
udp://tracker.leechers-paradise.org:6969/announce
Hash 09352091337be9acf0ab9bb7da08d044fd25c3e1
Peers seeds: 55 , leech: 18
Size 1.96 GB
Completato 776x
Aggiunto 20.09.16 - 14:09:52
Uploader   robbyrs
Votazione (Voti: 0)


Condividi questo bittorrent:


html/blog:


bbcode/forum:




Aggiungi Commento


counter