Loading...
 * Dettagli Torrent   globale  | Commenti (1) 


- La Coppia dei Campioni (2016).H264.Italian.Ac3.sub.ita.eng.iCV-MIRCrew -


Download via torrent:
Categoria bittorrent BDRip
Descrizione
La Coppia dei Campioni (2016).H264.Italian.Ac3.sub.ita.eng.iCV-MIRCrew

[center]


NO FOUND ONLY ORIGINAL RELEASE

My release is always in double track audio italian and Original audio
for select it use VLC or dvd player home
not use wmp

La Coppia dei Campioni (2016)







   DATA USCITA: 28 aprile 2016
   GENERE: Commedia
   ANNO: 2016
   REGIA: Giulio Base
   SCENEGGIATURA: Giulio Base
   FOTOGRAFIA: Giovanni Galasso
   MONTAGGIO: Claudio Di Mauro
   MUSICHE: Andrea Farri
   PRODUZIONE: Combo Produzioni, Notorious Pictures con Rai Cinema
   DISTRIBUZIONE: Notorious Pictures
   PAESE: Italia



Massimo Boldi, Max Tortora, Matthew Reynolds, Massimo Ceccherini, Anna Maria Barbera, Pia Lanciotti, Enzo Casertano



Due dipendenti della stessa multinazionale vincono alla lotteria aziendale un paio di biglietti per la finale della Champions League. Uno milanese, l'altro romano, uno benestante e l'altro nullatenente si conoscono per la prima volta all'imbarco per Praga detestandosi a prima vista. Una turbolenza costringe l'aereo a un atterraggio di emergenza in Slovenia e da qui inizia la disavventura dei due che......................



Two men must struggle to travel to Prague for Champions League Football Final match..............











[spoiler]
General
Unique ID                                : 246100618488653844404447089625569054736 (0xB925414AD293A7A7622B8C87D91E5010)
Complete name                            : La Coppia dei Campioni (2016).H264.ita.sub.ita.iCV-MIRCrew.mkv
Format                                   : Matroska
Format version                           : Version 2
File size                                : 1.04 GiB
Duration                                 : 1h 28mn
Overall bit rate                         : 1 691 Kbps
Movie name                               : Visit www.icv-crew.org
Encoded date                             : UTC 2016-09-17 18:49:08
Writing application                      : Lavf54.63.100
Writing library                          : Lavf54.63.100

Video
ID                                       : 1
Format                                   : AVC
Format/Info                              : Advanced Video Codec
Format profile                           : [email protected]
Format settings, CABAC                   : Yes
Format settings, ReFrames                : 2 frames
Codec ID                                 : V_MPEG4/ISO/AVC
Duration                                 : 1h 28mn
Bit rate                                 : 1 240 Kbps
Width                                    : 720 pixels
Height                                   : 390 pixels
Display aspect ratio                     : 16:9
Frame rate mode                          : Variable
Frame rate                               : 24.000 fps
Color space                              : YUV
Chroma subsampling                       : 4:2:0
Bit depth                                : 8 bits
Scan type                                : Progressive
Bits/(Pixel*Frame)                       : 0.184
Stream size                              : 763 MiB (72%)
Writing library                          : x264 core 130 r2273
Encoding settings                        : cabac=1 / ref=2 / deblock=1:0:0 / analyse=0x1:0x131 / me=hex / subme=7 / psy=1 / psy_rd=1.00:0.00 / mixed_ref=0 / me_range=16 / chroma_me=1 / trellis=1 / 8x8dct=0 / cqm=0 / deadzone=21,11 / fast_pskip=1 / chroma_qp_offset=-2 / threads=12 / lookahead_threads=2 / sliced_threads=0 / nr=0 / decimate=1 / interlaced=0 / bluray_compat=0 / constrained_intra=0 / bframes=3 / b_pyramid=0 / b_adapt=1 / b_bias=0 / direct=3 / weightb=1 / open_gop=0 / weightp=2 / keyint=240 / keyint_min=24 / scenecut=40 / intra_refresh=0 / rc_lookahead=40 / rc=2pass / mbtree=1 / bitrate=1240 / ratetol=1.0 / qcomp=0.60 / qpmin=10 / qpmax=69 / qpstep=4 / cplxblur=20.0 / qblur=0.5 / vbv_maxrate=24000 / vbv_bufsize=24000 / nal_hrd=none / ip_ratio=1.40 / aq=1:1.00
Language                                 : English
Default                                  : Yes
Forced                                   : No
DURATION                                 : 01:28:09.834000000
NUMBER_OF_FRAMES                         : 126956
NUMBER_OF_BYTES                          : 8394030762
_STATISTICS_WRITING_APP                  : mkvmerge v8.7.0 ('All of the above') 64bit
_STATISTICS_WRITING_DATE_UTC             : 2016-09-09 14:17:25
_STATISTICS_TAGS                         : BPS DURATION NUMBER_OF_FRAMES NUMBER_OF_BYTES

Audio
ID                                       : 2
Format                                   : AC-3
Format/Info                              : Audio Coding 3
Mode extension                           : CM (complete main)
Codec ID                                 : A_AC3
Duration                                 : 1h 28mn
Bit rate mode                            : Constant
Bit rate                                 : 448 Kbps
Channel(s)                               : 2 channels
Channel positions                        : Front: L R
Sampling rate                            : 48.0 KHz
Bit depth                                : 16 bits
Compression mode                         : Lossy
Delay relative to video                  : 1mn 5s
Stream size                              : 283 MiB (26%)
Title                                    : AC3 5.1
Language                                 : Italian
Default                                  : No
Forced                                   : No
DURATION                                 : 01:28:09.920000000
NUMBER_OF_FRAMES                         : 165310
NUMBER_OF_BYTES                          : 423193600
_STATISTICS_WRITING_APP                  : mkvmerge v8.7.0 ('All of the above') 64bit
_STATISTICS_WRITING_DATE_UTC             : 2016-09-09 14:17:25
_STATISTICS_TAGS                         : BPS DURATION NUMBER_OF_FRAMES NUMBER_OF_BYTES

Text
ID                                       : 3
Format                                   : UTF-8
Codec ID                                 : S_TEXT/UTF8
Codec ID/Info                            : UTF-8 Plain Text
Title                                    : Regolari
Language                                 : Italian
Default                                  : No
Forced                                   : No
DURATION                                 : 01:23:55.792000000
NUMBER_OF_FRAMES                         : 1661
NUMBER_OF_BYTES                          : 69056
_STATISTICS_WRITING_APP                  : mkvmerge v8.7.0 ('All of the above') 64bit
_STATISTICS_WRITING_DATE_UTC             : 2016-09-09 14:17:25
_STATISTICS_TAGS                         : BPS DURATION NUMBER_OF_FRAMES NUMBER_OF_BYTES

Menu
00:00:00.000                             : :00:00:00.000
00:07:05.342                             : :00:07:05.342
00:14:28.201                             : :00:14:28.201
00:20:13.838                             : :00:20:13.838
00:29:27.099                             : :00:29:27.099
00:39:02.590                             : :00:39:02.590
00:50:56.804                             : :00:50:56.804
00:59:52.756                             : :00:59:52.756
01:08:53.129                             : :01:08:53.129
01:16:19.950                             : :01:16:19.950
01:23:27.706                             : :01:23:27.706



[/spoiler]

[/center]

Info: Per scaricare devi usare un client come uTorrent o Transmission
AnnounceURL
udp://tracker.leechers-paradise.org:6969/announce
Hash ac03213a6e3aa27c72001875bd292af358ef438a
Peers seeds: 96 , leech: 25
Size 1.04 GB
Completato 1284x
Aggiunto 20.09.16 - 13:09:34
Uploader   robbyrs
Votazione (Voti: 0)


Condividi questo bittorrent:


html/blog:


bbcode/forum:




Aggiungi Commento
Ultimi commenti
avatar     
Grazie  uploader , un  movie  bellissimo!
aragon 12
20/09 18.14
Tutti commenti (1)


counter