Loading...
 * Dettagli Torrent   globale  | Commenti (0) 


- Wild Horses (2015).H264Italian.English.Ac3.5.1.multisub.iCV-MIRCrew -


Download via torrent:
Categoria bittorrent BDRip
Descrizione
Wild Horses (2015).H264Italian.English.Ac3.5.1.multisub.iCV-MIRCrew

[center]


NO FOUND ONLY ORIGINAL RELEASE

My release is always in double track audio italian and Original audio
for select it use VLC or dvd player home
not use wmp

Wild Horses (2015)







Titolo originale Wild Horses
Paese di produzione Stati Uniti d'America
Anno 2015
Durata 102 min
Genere poliziesco
Regia Robert Duvall
Soggetto Michael Shell
Sceneggiatura Robert Duvall
Produttore Rob Carliner, Michael Mendelsohn
Fotografia Barry Markowitz
Montaggio Cary Gries
Musiche Tim Williams




   Robert Duvall: Scott Briggs
   James Franco: Ben Briggs
   Josh Hartnett: KC Briggs
   Adriana Barraza: Mrs. Davis
   Jim Parrack: ag. Rogers
   Luciana Duvall: Samantha Payne
   Angie Cepeda: Maria Gonzales
   Devon Abner: Johnny Briggs




Texas, 2015. Scott Briggs (Robert Duvall) è l'ormai anziano patriarca di una famiglia che gestisce un ranch. Da 15 anni non vede e non parla con uno dei suoi tre figli, Ben (James Franco), con cui ha litigato dopo aver scoperto della sua omosessualità.



A detective opens up a fifteen-year-old missing persons case and begins to suspect that the boy it belongs to was murdered - and that a local rancher was involved.











[spoiler]
General
Unique ID                                : 185939379768634903949690688763213460188 (0x8BE29F370C5D760B93A263F893C532DC)
Complete name                            : Wild Horses (2015).H264.ita.eng.Multisub.iCV-MIRCrew.mkv
Format                                   : Matroska
Format version                           : Version 2
File size                                : 1.46 GiB
Duration                                 : 1h 39mn
Overall bit rate                         : 2 111 Kbps
Movie name                               : WILD_HORSES.Title1
Encoded date                             : UTC 2016-08-26 14:57:07
Writing application                      : DVDFab 9.1.5.7
Writing library                          : libebml v0.7.8 + libmatroska v0.8.1

Video
ID                                       : 1
Format                                   : AVC
Format/Info                              : Advanced Video Codec
Format profile                           : [email protected]
Format settings, CABAC                   : Yes
Format settings, ReFrames                : 2 frames
Codec ID                                 : V_MPEG4/ISO/AVC
Duration                                 : 1h 39mn
Bit rate                                 : 1 237 Kbps
Width                                    : 720 pixels
Height                                   : 300 pixels
Display aspect ratio                     : 2.40:1
Frame rate                               : 25.000 fps
Color space                              : YUV
Chroma subsampling                       : 4:2:0
Bit depth                                : 8 bits
Scan type                                : Progressive
Bits/(Pixel*Frame)                       : 0.229
Stream size                              : 879 MiB (59%)
Writing library                          : x264 core
Default                                  : Yes
Forced                                   : No
Color primaries                          : BT.601-6 525, BT.1358 525, BT.1700 NTSC, SMPTE 170M
Transfer characteristics                 : BT.709-5, BT.1361
Matrix coefficients                      : BT.601-6 525, BT.1358 525, BT.1700 NTSC, SMPTE 170M

Audio #1
ID                                       : 2
Format                                   : AC-3
Format/Info                              : Audio Coding 3
Mode extension                           : CM (complete main)
Codec ID                                 : A_AC3
Duration                                 : 1h 39mn
Bit rate mode                            : Constant
Bit rate                                 : 384 Kbps
Channel(s)                               : 6 channels
Channel positions                        : Front: L C R, Side: L R, LFE
Sampling rate                            : 48.0 KHz
Bit depth                                : 16 bits
Compression mode                         : Lossy
Stream size                              : 273 MiB (18%)
Language                                 : Italian
Default                                  : Yes
Forced                                   : No

Audio #2
ID                                       : 3
Format                                   : AC-3
Format/Info                              : Audio Coding 3
Mode extension                           : CM (complete main)
Codec ID                                 : A_AC3
Duration                                 : 1h 39mn
Bit rate mode                            : Constant
Bit rate                                 : 448 Kbps
Channel(s)                               : 6 channels
Channel positions                        : Front: L C R, Side: L R, LFE
Sampling rate                            : 48.0 KHz
Bit depth                                : 16 bits
Compression mode                         : Lossy
Stream size                              : 318 MiB (21%)
Language                                 : English
Default                                  : No
Forced                                   : No

Text #1
ID                                       : 4
Format                                   : VobSub
Codec ID                                 : S_VOBSUB
Codec ID/Info                            : The same subtitle format used on DVDs
Language                                 : English
Default                                  : Yes
Forced                                   : No

Text #2
ID                                       : 5
Format                                   : VobSub
Codec ID                                 : S_VOBSUB
Codec ID/Info                            : The same subtitle format used on DVDs
Language                                 : French
Default                                  : No
Forced                                   : No

Text #3
ID                                       : 6
Format                                   : VobSub
Codec ID                                 : S_VOBSUB
Codec ID/Info                            : The same subtitle format used on DVDs
Language                                 : Italian
Default                                  : No
Forced                                   : No

Text #4
ID                                       : 7
Format                                   : VobSub
Codec ID                                 : S_VOBSUB
Codec ID/Info                            : The same subtitle format used on DVDs
Language                                 : Spanish
Default                                  : No
Forced                                   : No

Text #5
ID                                       : 8
Format                                   : VobSub
Codec ID                                 : S_VOBSUB
Codec ID/Info                            : The same subtitle format used on DVDs
Language                                 : Hindi
Default                                  : No
Forced                                   : No

Text #6
ID                                       : 9
Format                                   : VobSub
Codec ID                                 : S_VOBSUB
Codec ID/Info                            : The same subtitle format used on DVDs
Language                                 : Italian
Default                                  : No
Forced                                   : No

Menu
00:00:00.000                             : en01)00:00:00:000
00:06:42.640                             : en02)00:06:42:640
00:15:18.520                             : en03)00:15:18:520
00:23:43.880                             : en04)00:23:43:880
00:32:42.000                             : en05)00:32:42:000
00:38:38.520                             : en06)00:38:38:520
00:47:52.440                             : en07)00:47:52:440
00:57:58.480                             : en000:57:58:480
01:05:43.240                             : en09)01:05:43:240
01:11:43.120                             : en10)01:11:43:120
01:20:25.640                             : en11)01:20:25:640
01:29:11.560                             : en12)01:29:11:560
01:39:20.440                             : en13)01:39:20:440



[/spoiler]

[/center]

Info: Per scaricare devi usare un client come uTorrent o Transmission
AnnounceURL
udp://tracker.leechers-paradise.org:6969/announce
Hash 3f512bb73cd6c3be0df141a897716b3c6d6d6c5c
Peers seeds: 92 , leech: 16
Size 1.46 GB
Completato 1422x
Aggiunto 30.08.16 - 14:08:22
Uploader   robbyrs
Votazione (Voti: 0)


Condividi questo bittorrent:


html/blog:


bbcode/forum:




Aggiungi Commento


counter