Loading...
 * Dettagli Torrent   globale  | Commenti (0) 


- Pan - viaggio sullisola che non cè (2015).H264.Italian.English.Ac3.5.1.sub.ita.Nuita.eng.iCV-MIRCr -


Download via torrent:
Categoria bittorrent BDRip
Descrizione
Pan - viaggio sull isola che non c'è (2015).H264.Italian.English.Ac3.5.1.sub.ita.Nuita.eng.iCV-MIRCrew

[center]


NO FOUND ONLY ORIGINAL RELEASE

My release is always in double track audio italian and Original audio
for select it use VLC or dvd player home
not use wmp

Pan - viaggio sull'isola che non c'è (2015)








   DATA USCITA: 12 novembre 2015
   GENERE: Avventura , Commedia , Family , Fantasy
   ANNO: 2015
   REGIA: Joe Wright
   SCENEGGIATURA: Jason Fuchs
   FOTOGRAFIA: Seamus McGarvey
   MUSICHE: Dario Marianelli
   PRODUZIONE: Berlanti Productions
   DISTRIBUZIONE: Warner Bros. Italia
   PAESE: USA
   DURATA: 111 Min
   FORMATO: 2D e 3D



Hugh Jackman, Amanda Seyfried, Rooney Mara, Garrett Hedlund, Nonso Anozie, Levi Miller, Cara Delevingne, Kathy Burke



Peter è un dodicenne biricchino con una insopprimibile vena ribelle, ma nel triste orfanotrofio di Londra dove ha vissuto tutta la vita queste qualità non sono ben viste. In una notte incredibile Peter viene trasportato dall'orfanotrofio dentro un mondo fantastico, popolato da pirati, guerrieri e fate, chiamato Neverland.



12-year-old orphan Peter is spirited away to the magical world of Neverland, where he finds both fun and danger, and ultimately discovers his destiny -- to become the hero who will be forever known as Peter Pan.











[spoiler]
General
Unique ID                                : 58630557495515247687361700155949708914 (0x2C1BD5AA8D69CF8BB535ED20DB51F672)
Complete name                            : Pan - viaggio sull'isola che non c'è (2015).H264.ita.eng.sub.NUita.eng.iCV-MIRCrew.mkv
Format                                   : Matroska
Format version                           : Version 2
File size                                : 1.67 GiB
Duration                                 : 1h 51mn
Overall bit rate                         : 2 148 Kbps
Movie name                               : Visit www.icv-crew.org
Encoded date                             : UTC 2016-08-22 18:06:09
Writing application                      : Lavf54.63.100
Writing library                          : Lavf54.63.100

Video
ID                                       : 1
Format                                   : AVC
Format/Info                              : Advanced Video Codec
Format profile                           : [email protected]
Format settings, CABAC                   : Yes
Format settings, ReFrames                : 2 frames
Codec ID                                 : V_MPEG4/ISO/AVC
Duration                                 : 1h 51mn
Bit rate                                 : 1 250 Kbps
Width                                    : 720 pixels
Height                                   : 300 pixels
Display aspect ratio                     : 2.40:1
Frame rate mode                          : Variable
Frame rate                               : 23.976 fps
Color space                              : YUV
Chroma subsampling                       : 4:2:0
Bit depth                                : 8 bits
Scan type                                : Progressive
Bits/(Pixel*Frame)                       : 0.241
Stream size                              : 965 MiB (56%)
Title                                    : Pan - Viaggio sull'isola che non c'è (encoded by lele753)
Writing library                          : x264 core 130 r2273
Encoding settings                        : cabac=1 / ref=2 / deblock=1:0:0 / analyse=0x1:0x131 / me=hex / subme=7 / psy=1 / psy_rd=1.00:0.00 / mixed_ref=0 / me_range=16 / chroma_me=1 / trellis=1 / 8x8dct=0 / cqm=0 / deadzone=21,11 / fast_pskip=1 / chroma_qp_offset=-2 / threads=12 / lookahead_threads=2 / sliced_threads=0 / nr=0 / decimate=1 / interlaced=0 / bluray_compat=0 / constrained_intra=0 / bframes=3 / b_pyramid=0 / b_adapt=1 / b_bias=0 / direct=3 / weightb=1 / open_gop=0 / weightp=2 / keyint=230 / keyint_min=23 / scenecut=40 / intra_refresh=0 / rc_lookahead=40 / rc=abr / mbtree=1 / bitrate=1250 / ratetol=1.0 / qcomp=0.60 / qpmin=10 / qpmax=69 / qpstep=4 / vbv_maxrate=24000 / vbv_bufsize=24000 / nal_hrd=none / ip_ratio=1.40 / aq=1:1.00
Language                                 : Italian
Default                                  : Yes
Forced                                   : Yes
DURATION                                 : 01:51:32.060000000
NUMBER_OF_FRAMES                         : 160449
NUMBER_OF_BYTES                          : 7320237807
_STATISTICS_WRITING_APP                  : mkvmerge v8.8.0 ('Wind at my back') 64bit
_STATISTICS_WRITING_DATE_UTC             : 2016-02-05 09:00:12
_STATISTICS_TAGS                         : BPS DURATION NUMBER_OF_FRAMES NUMBER_OF_BYTES

Audio #1
ID                                       : 2
Format                                   : AC-3
Format/Info                              : Audio Coding 3
Mode extension                           : CM (complete main)
Codec ID                                 : A_AC3
Duration                                 : 1h 51mn
Bit rate mode                            : Constant
Bit rate                                 : 448 Kbps
Channel(s)                               : 6 channels
Channel positions                        : Front: L C R, Side: L R, LFE
Sampling rate                            : 48.0 KHz
Bit depth                                : 16 bits
Compression mode                         : Lossy
Delay relative to video                  : 1mn 5s
Stream size                              : 357 MiB (21%)
Title                                    : AC3 5.1 640Kbps
Language                                 : Italian
Default                                  : Yes
Forced                                   : Yes
DURATION                                 : 01:51:32.128000000
NUMBER_OF_FRAMES                         : 209129
NUMBER_OF_BYTES                          : 535370240
_STATISTICS_WRITING_APP                  : mkvmerge v8.8.0 ('Wind at my back') 64bit
_STATISTICS_WRITING_DATE_UTC             : 2016-02-05 09:00:12
_STATISTICS_TAGS                         : BPS DURATION NUMBER_OF_FRAMES NUMBER_OF_BYTES

Audio #2
ID                                       : 3
Format                                   : AC-3
Format/Info                              : Audio Coding 3
Mode extension                           : CM (complete main)
Codec ID                                 : A_AC3
Duration                                 : 1h 51mn
Bit rate mode                            : Constant
Bit rate                                 : 448 Kbps
Channel(s)                               : 6 channels
Channel positions                        : Front: L C R, Side: L R, LFE
Sampling rate                            : 48.0 KHz
Bit depth                                : 16 bits
Compression mode                         : Lossy
Delay relative to video                  : 1mn 5s
Stream size                              : 357 MiB (21%)
Title                                    : AC3 5.1 448Kbps
Language                                 : English
Default                                  : No
Forced                                   : No
DURATION                                 : 01:51:32.128000000
NUMBER_OF_FRAMES                         : 209129
NUMBER_OF_BYTES                          : 374759168
_STATISTICS_WRITING_APP                  : mkvmerge v8.8.0 ('Wind at my back') 64bit
_STATISTICS_WRITING_DATE_UTC             : 2016-02-05 09:00:12
_STATISTICS_TAGS                         : BPS DURATION NUMBER_OF_FRAMES NUMBER_OF_BYTES

Text #1
ID                                       : 4
Format                                   : ASS
Codec ID                                 : S_TEXT/ASS
Codec ID/Info                            : Advanced Sub Station Alpha
Compression mode                         : Lossless
Title                                    : Italiano forced
Language                                 : Italian
Default                                  : Yes
Forced                                   : Yes
DURATION                                 : 01:13:48.174000000
NUMBER_OF_FRAMES                         : 14
NUMBER_OF_BYTES                          : 355
_STATISTICS_WRITING_APP                  : mkvmerge v8.8.0 ('Wind at my back') 64bit
_STATISTICS_WRITING_DATE_UTC             : 2016-02-05 09:00:12
_STATISTICS_TAGS                         : BPS DURATION NUMBER_OF_FRAMES NUMBER_OF_BYTES

Text #2
ID                                       : 5
Format                                   : ASS
Codec ID                                 : S_TEXT/ASS
Codec ID/Info                            : Advanced Sub Station Alpha
Compression mode                         : Lossless
Title                                    : Italiano SDH
Language                                 : Italian
Default                                  : No
Forced                                   : No
DURATION                                 : 01:50:49.643000000
NUMBER_OF_FRAMES                         : 1482
NUMBER_OF_BYTES                          : 37422
_STATISTICS_WRITING_APP                  : mkvmerge v8.8.0 ('Wind at my back') 64bit
_STATISTICS_WRITING_DATE_UTC             : 2016-02-05 09:00:12
_STATISTICS_TAGS                         : BPS DURATION NUMBER_OF_FRAMES NUMBER_OF_BYTES

Text #3
ID                                       : 6
Format                                   : ASS
Codec ID                                 : S_TEXT/ASS
Codec ID/Info                            : Advanced Sub Station Alpha
Compression mode                         : Lossless
Title                                    : English SDH
Language                                 : English
Default                                  : No
Forced                                   : No
DURATION                                 : 01:50:48.684000000
NUMBER_OF_FRAMES                         : 1480
NUMBER_OF_BYTES                          : 38438
_STATISTICS_WRITING_APP                  : mkvmerge v8.8.0 ('Wind at my back') 64bit
_STATISTICS_WRITING_DATE_UTC             : 2016-02-05 09:00:12
_STATISTICS_TAGS                         : BPS DURATION NUMBER_OF_FRAMES NUMBER_OF_BYTES

Menu
00:00:00.000                             : :Capitolo 1
00:10:28.419                             : :Capitolo 2
00:19:45.851                             : :Capitolo 3
00:31:07.282                             : :Capitolo 4
00:39:14.060                             : :Capitolo 5
00:48:27.863                             : :Capitolo 6
01:00:07.562                             : :Capitolo 7
01:09:29.374                             : :Capitolo 8
01:20:12.808                             : :Capitolo 9
01:30:02.897                             : :Capitolo 10
01:39:51.027                             : :Capitolo 11
01:43:05.888                             : :Capitolo 12



[/spoiler]

[/center]

Info: Per scaricare devi usare un client come uTorrent o Transmission
AnnounceURL
udp://tracker.leechers-paradise.org:6969/announce
Hash f22b1044fa157c2acf2c2207b698e84d18dd9a33
Peers seeds: 111 , leech: 33
Size 1.67 GB
Completato 1068x
Aggiunto 24.08.16 - 14:08:52
Uploader   robbyrs
Votazione (Voti: 1)


Condividi questo bittorrent:


html/blog:


bbcode/forum:




Aggiungi Commento


counter