Loading...
 * Dettagli Torrent   globale  | Commenti (0) 


- Vacancy (2007).H264.Italian.English.Ac3.5.1.sub.eng.iCV-MIRCrew -


Download via torrent:
Categoria bittorrent BDRip
Descrizione
Vacancy (2007).H264.Italian.English.Ac3.5.1.sub.eng.iCV-MIRCrew

[center]


NO FOUND ONLY ORIGINAL RELEASE

My release is always in double track audio italian and Original audio
for select it use VLC or dvd player home
not use wmp

Vacancy (2007)







Titolo originale Vacancy
Paese di produzione Stati Uniti d'America
Anno 2007
Durata 80 min
Rapporto 2,35:1
Genere thriller
Regia Nimród Antal
Sceneggiatura Mark L. Smith
Produttore Hal Lieberman
Casa di produzione Screen Gems, Hal Lieberman Company
Fotografia Andrzej Sekula
Montaggio Armen Minasian
Musiche Paul Haslinger
Scenografia Jon Gary Steele




   Kate Beckinsale: Amy Fox
   Luke Wilson: David Fox
   Frank Whaley: Mason
   Ethan Embry: Il meccanico




Una coppia percorre di notte una sperduta strada di montagna quando un guasto alla macchina costringe i due protagonisti a cercare un posto in cui pernottare nell'attesa di trovare un meccanico aperto e..................



A married couple becomes stranded at an isolated motel and finds hidden video cameras in their room. They soon realize that unless they escape, they'll be the next victims of a snuff film.  











[spoiler]
General
Unique ID                                : 26425329040169966017900624538295775617 (0x13E1554FCC5B1A753E7EE37CE782B181)
Complete name                            : Vacancy (2007).H264.ita.eng.sub.ita.eng.iCV-MIRCrew.mkv
Format                                   : Matroska
Format version                           : Version 2
File size                                : 1.26 GiB
Duration                                 : 1h 25mn
Overall bit rate                         : 2 125 Kbps
Movie name                               : Visit www.icv-crew.org
Encoded date                             : UTC 2016-08-20 22:16:17
Writing application                      : Lavf54.63.100
Writing library                          : Lavf54.63.100

Video
ID                                       : 1
Format                                   : AVC
Format/Info                              : Advanced Video Codec
Format profile                           : [email protected]
Format settings, CABAC                   : Yes
Format settings, ReFrames                : 2 frames
Codec ID                                 : V_MPEG4/ISO/AVC
Duration                                 : 1h 25mn
Bit rate                                 : 1 187 Kbps
Nominal bit rate                         : 1 250 Kbps
Width                                    : 720 pixels
Height                                   : 300 pixels
Display aspect ratio                     : 2.40:1
Frame rate mode                          : Variable
Frame rate                               : 23.976 fps
Color space                              : YUV
Chroma subsampling                       : 4:2:0
Bit depth                                : 8 bits
Scan type                                : Progressive
Bits/(Pixel*Frame)                       : 0.229
Stream size                              : 722 MiB (56%)
Title                                    : Vacanzy (encoded by lele753)
Writing library                          : x264 core 130 r2273
Encoding settings                        : cabac=1 / ref=2 / deblock=1:0:0 / analyse=0x1:0x131 / me=hex / subme=7 / psy=1 / psy_rd=1.00:0.00 / mixed_ref=0 / me_range=16 / chroma_me=1 / trellis=1 / 8x8dct=0 / cqm=0 / deadzone=21,11 / fast_pskip=1 / chroma_qp_offset=-2 / threads=12 / lookahead_threads=2 / sliced_threads=0 / nr=0 / decimate=1 / interlaced=0 / bluray_compat=0 / constrained_intra=0 / bframes=3 / b_pyramid=0 / b_adapt=1 / b_bias=0 / direct=3 / weightb=1 / open_gop=0 / weightp=2 / keyint=230 / keyint_min=23 / scenecut=40 / intra_refresh=0 / rc_lookahead=40 / rc=abr / mbtree=1 / bitrate=1250 / ratetol=1.0 / qcomp=0.60 / qpmin=10 / qpmax=69 / qpstep=4 / vbv_maxrate=24000 / vbv_bufsize=24000 / nal_hrd=none / ip_ratio=1.40 / aq=1:1.00
Language                                 : Italian
Default                                  : Yes
Forced                                   : Yes
DURATION                                 : 01:25:06.059000000
NUMBER_OF_FRAMES                         : 122423
NUMBER_OF_BYTES                          : 4048136882
_STATISTICS_WRITING_APP                  : mkvmerge v9.3.1 ('Mask Machine') 64bit
_STATISTICS_WRITING_DATE_UTC             : 2016-07-14 21:06:41
_STATISTICS_TAGS                         : BPS DURATION NUMBER_OF_FRAMES NUMBER_OF_BYTES

Audio #1
ID                                       : 2
Format                                   : AC-3
Format/Info                              : Audio Coding 3
Mode extension                           : CM (complete main)
Codec ID                                 : A_AC3
Duration                                 : 1h 25mn
Bit rate mode                            : Constant
Bit rate                                 : 448 Kbps
Channel(s)                               : 6 channels
Channel positions                        : Front: L C R, Side: L R, LFE
Sampling rate                            : 48.0 KHz
Bit depth                                : 16 bits
Compression mode                         : Lossy
Delay relative to video                  : 1mn 5s
Stream size                              : 273 MiB (21%)
Title                                    : AC3 5.1 640Kbps
Language                                 : Italian
Default                                  : Yes
Forced                                   : Yes
DURATION                                 : 01:25:06.112000000
NUMBER_OF_FRAMES                         : 159566
NUMBER_OF_BYTES                          : 408488960
_STATISTICS_WRITING_APP                  : mkvmerge v9.3.1 ('Mask Machine') 64bit
_STATISTICS_WRITING_DATE_UTC             : 2016-07-14 21:06:41
_STATISTICS_TAGS                         : BPS DURATION NUMBER_OF_FRAMES NUMBER_OF_BYTES

Audio #2
ID                                       : 3
Format                                   : AC-3
Format/Info                              : Audio Coding 3
Mode extension                           : CM (complete main)
Codec ID                                 : A_AC3
Duration                                 : 1h 25mn
Bit rate mode                            : Constant
Bit rate                                 : 448 Kbps
Channel(s)                               : 6 channels
Channel positions                        : Front: L C R, Side: L R, LFE
Sampling rate                            : 48.0 KHz
Bit depth                                : 16 bits
Compression mode                         : Lossy
Delay relative to video                  : 1mn 5s
Stream size                              : 273 MiB (21%)
Title                                    : AC3 5.1 640Kbps
Language                                 : English
Default                                  : No
Forced                                   : No
DURATION                                 : 01:25:06.112000000
NUMBER_OF_FRAMES                         : 159566
NUMBER_OF_BYTES                          : 408488960
_STATISTICS_WRITING_APP                  : mkvmerge v9.3.1 ('Mask Machine') 64bit
_STATISTICS_WRITING_DATE_UTC             : 2016-07-14 21:06:41
_STATISTICS_TAGS                         : BPS DURATION NUMBER_OF_FRAMES NUMBER_OF_BYTES

Text #1
ID                                       : 4
Format                                   : UTF-8
Codec ID                                 : S_TEXT/UTF8
Codec ID/Info                            : UTF-8 Plain Text
Title                                    : Italiano forced (VUOTO)
Language                                 : Italian
Default                                  : Yes
Forced                                   : No
DURATION                                 : 00:00:01.000000000
NUMBER_OF_FRAMES                         : 1
NUMBER_OF_BYTES                          : 0
_STATISTICS_WRITING_APP                  : mkvmerge v9.3.1 ('Mask Machine') 64bit
_STATISTICS_WRITING_DATE_UTC             : 2016-07-14 21:06:41
_STATISTICS_TAGS                         : BPS DURATION NUMBER_OF_FRAMES NUMBER_OF_BYTES

Text #2
ID                                       : 5
Format                                   : UTF-8
Codec ID                                 : S_TEXT/UTF8
Codec ID/Info                            : UTF-8 Plain Text
Title                                    : Italiano
Language                                 : Italian
Default                                  : No
Forced                                   : No
DURATION                                 : 01:16:32.087000000
NUMBER_OF_FRAMES                         : 687
NUMBER_OF_BYTES                          : 23649
_STATISTICS_WRITING_APP                  : mkvmerge v9.3.1 ('Mask Machine') 64bit
_STATISTICS_WRITING_DATE_UTC             : 2016-07-14 21:06:41
_STATISTICS_TAGS                         : BPS DURATION NUMBER_OF_FRAMES NUMBER_OF_BYTES

Text #3
ID                                       : 6
Format                                   : UTF-8
Codec ID                                 : S_TEXT/UTF8
Codec ID/Info                            : UTF-8 Plain Text
Title                                    : English
Language                                 : English
Default                                  : No
Forced                                   : No
DURATION                                 : 01:16:32.087000000
NUMBER_OF_FRAMES                         : 686
NUMBER_OF_BYTES                          : 23777
_STATISTICS_WRITING_APP                  : mkvmerge v9.3.1 ('Mask Machine') 64bit
_STATISTICS_WRITING_DATE_UTC             : 2016-07-14 21:06:41
_STATISTICS_TAGS                         : BPS DURATION NUMBER_OF_FRAMES NUMBER_OF_BYTES

Menu
00:00:00.000                             : :Capitolo 01
00:06:26.303                             : :Capitolo 02
00:11:43.828                             : :Capitolo 03
00:15:44.235                             : :Capitolo 04
00:21:38.756                             : :Capitolo 05
00:25:46.920                             : :Capitolo 06
00:30:46.219                             : :Capitolo 07
00:34:26.022                             : :Capitolo 08
00:39:17.105                             : :Capitolo 09
00:45:45.368                             : :Capitolo 10
00:51:27.584                             : :Capitolo 11
00:57:12.471                             : :Capitolo 12
01:00:32.504                             : :Capitolo 13
01:06:16.973                             : :Capitolo 14
01:09:09.896                             : :Capitolo 15
01:14:24.877                             : :Capitolo 16


[/spoiler]

[/center]

Info: Per scaricare devi usare un client come uTorrent o Transmission
AnnounceURL
udp://tracker.leechers-paradise.org:6969/announce
Hash 61ce416a410ceae091fba5f30a99e4b2ccef8cd2
Peers seeds: 36 , leech: 13
Size 1.26 GB
Completato 92x
Aggiunto 22.08.16 - 15:08:23
Uploader   robbyrs
Votazione (Voti: 0)


Condividi questo bittorrent:


html/blog:


bbcode/forum:




Aggiungi Commento


counter