Loading...
 * Dettagli Torrent   globale  | Commenti (0) 


- Io Sono Leggenda (2008).BRrip.XviD - Italian.English.Ac3.5.1.sub.eng.iCV-MIRCrew -


Download via torrent:
Categoria bittorrent BDRip
Descrizione
I Am Legend - Io Sono Leggenda (200.BRrip.XviD - Italian.English.Ac3.5.1.sub.eng.iCV-MIRCrew

[center]


NO FOUND ONLY ORIGINAL RELEASE

My release is always in double track audio italian and Original audio
for select it use VLC or dvd player home
not use wmp

Io Sono Leggenda - I Am Legend (200







Titolo originale I Am Legend
Lingua originale inglese
Paese di produzione Stati Uniti d'America
Anno 2007
Durata 101 min
Rapporto 2.35 : 1
Genere fantascienza, azione, thriller, drammatico, orrore, post-apocalittico
Regia Francis Lawrence
Soggetto dall'omonimo romanzo di Richard Matheson
Sceneggiatura Akiva Goldsman, Mark Protosevich
Produttore Akiva Goldsman, David Heyman, James Lassiter, Neal Moritz, Erwin Stoff
Produttore esecutivo Michael Tadross
Casa di produzione Warner Bros, Original Film
Distribuzione (Italia) Warner Bros
Fotografia Andrew Lesnie
Montaggio Wayne Wahrman
Musiche James Newton Howard
Scenografia Naomi Shohan




   Will Smith: Robert Neville
   Salli Richardson: Zoe Neville
   Willow Smith: Marley Neville
   Alice Braga: Anna
   Dash Mihok: maschio infetto
   Charlie Tahan: Ethan
   Emma Thompson: dott.ssa Alice Krippin (non accreditata)
   Abbey e Kona: Samantha "Sam"




Anno 2012. Robert Neville sembra essere l'unico sopravvissuto a una spaventosa epidemia generata dal virus del morbillo geneticamente modificato e originariamente concepito dalla dottoressa Alice Krippin per combattere il cancro. L'epidemia ha infettato quasi tutti gli esseri umani e gli animali domestici con risultati diversi: la stragrande maggioranza è morta, mentre una piccola percentuale ha subìto una degenerazione simile a quella provocata dalla rabbia, che li ha condotti allo stato di zombi................



Robert Neville is a scientist who was unable to stop the spread of the terrible virus that was incurable and man-made. Immune, Neville is now the last human survivor in what is left of New York City and perhaps the world. For three years, Neville has faithfully sent out daily radio messages, desperate to find any other survivors who might be out there. But he is not alone. Mutant victims of the plague -- The Infected -- lurk in the ...................












[spoiler]
General
Unique ID                                : 183836620146617230971843405217814176016 (0x8A4DA5294E5D1C04523CBBA5FE926110)
Complete name                            : Io Sono Leggenda (200.H264.ita.eng.sub.eng.iCV-MIRCrew.mkv
Format                                   : Matroska
Format version                           : Version 2
File size                                : 1.47 GiB
Duration                                 : 1h 40mn
Overall bit rate                         : 2 088 Kbps
Movie name                               : www.icv-crew.org
Encoded date                             : UTC 2008-05-06 18:51:42
Writing application                      : Lavf54.63.100
Writing library                          : Lavf54.63.100

Video
ID                                       : 1
Format                                   : AVC
Format/Info                              : Advanced Video Codec
Format profile                           : [email protected]
Format settings, CABAC                   : Yes
Format settings, ReFrames                : 2 frames
Codec ID                                 : V_MPEG4/ISO/AVC
Duration                                 : 1h 40mn
Bit rate                                 : 1 200 Kbps
Width                                    : 720 pixels
Height                                   : 300 pixels
Display aspect ratio                     : 2.40:1
Frame rate mode                          : Variable
Frame rate                               : 23.976 fps
Color space                              : YUV
Chroma subsampling                       : 4:2:0
Bit depth                                : 8 bits
Scan type                                : Progressive
Bits/(Pixel*Frame)                       : 0.232
Stream size                              : 827 MiB (55%)
Title                                    : I Am Legend
Writing library                          : x264 core 130 r2273
Encoding settings                        : cabac=1 / ref=2 / deblock=1:0:0 / analyse=0x1:0x131 / me=hex / subme=7 / psy=1 / psy_rd=1.00:0.00 / mixed_ref=0 / me_range=16 / chroma_me=1 / trellis=1 / 8x8dct=0 / cqm=0 / deadzone=21,11 / fast_pskip=1 / chroma_qp_offset=-2 / threads=12 / lookahead_threads=2 / sliced_threads=0 / nr=0 / decimate=1 / interlaced=0 / bluray_compat=0 / constrained_intra=0 / bframes=3 / b_pyramid=0 / b_adapt=1 / b_bias=0 / direct=3 / weightb=1 / open_gop=0 / weightp=2 / keyint=230 / keyint_min=23 / scenecut=40 / intra_refresh=0 / rc_lookahead=40 / rc=abr / mbtree=1 / bitrate=1200 / ratetol=1.0 / qcomp=0.60 / qpmin=10 / qpmax=69 / qpstep=4 / vbv_maxrate=24000 / vbv_bufsize=24000 / nal_hrd=none / ip_ratio=1.40 / aq=1:1.00
Language                                 : Italian
Default                                  : Yes
Forced                                   : No

Audio #1
ID                                       : 2
Format                                   : AC-3
Format/Info                              : Audio Coding 3
Mode extension                           : CM (complete main)
Codec ID                                 : A_AC3
Duration                                 : 1h 40mn
Bit rate mode                            : Constant
Bit rate                                 : 448 Kbps
Channel(s)                               : 6 channels
Channel positions                        : Front: L C R, Side: L R, LFE
Sampling rate                            : 48.0 KHz
Bit depth                                : 16 bits
Compression mode                         : Lossy
Delay relative to video                  : 1mn 5s
Stream size                              : 322 MiB (21%)
Title                                    : AC3 Italiano
Language                                 : Italian
Default                                  : Yes
Forced                                   : No

Audio #2
ID                                       : 3
Format                                   : AC-3
Format/Info                              : Audio Coding 3
Mode extension                           : CM (complete main)
Codec ID                                 : A_AC3
Duration                                 : 1h 40mn
Bit rate mode                            : Constant
Bit rate                                 : 448 Kbps
Channel(s)                               : 6 channels
Channel positions                        : Front: L C R, Side: L R, LFE
Sampling rate                            : 48.0 KHz
Bit depth                                : 16 bits
Compression mode                         : Lossy
Delay relative to video                  : 1mn 5s
Stream size                              : 322 MiB (21%)
Title                                    : AC3 English
Language                                 : English
Default                                  : No
Forced                                   : No

Text
ID                                       : 4
Format                                   : UTF-8
Codec ID                                 : S_TEXT/UTF8
Codec ID/Info                            : UTF-8 Plain Text
Title                                    : SUB English
Language                                 : English
Default                                  : No
Forced                                   : No


[/spoiler]

[/center]

Info: Per scaricare devi usare un client come uTorrent o Transmission
AnnounceURL
udp://tracker.leechers-paradise.org:6969/announce
Hash 77fa712584551c3cb39b60db8c121e49b02c7699
Peers seeds: 76 , leech: 12
Size 1.47 GB
Completato 281x
Aggiunto 22.08.16 - 07:08:47
Uploader   robbyrs
Votazione (Voti: 0)


Condividi questo bittorrent:


html/blog:


bbcode/forum:




Aggiungi Commento


counter