Loading...
 * Dettagli Torrent   globale  | Commenti (0) 


- Brivido (1986) Stephen King.H264.Italian.English.Ac3.sub.Ita.Eng.iCV-MIRCrew -


Download via torrent:
Categoria bittorrent BDRip
Descrizione
Maximum Overdrive - Brivido (1986) Stephen King.H264.Italian.English.Ac3.sub.Ita.Eng.iCV-MIRCrew

[center] by www.icv-crew.org


NO FOUND ONLY ORIGINAL RELEASE

My release is always in double track audio italian and Original audio
for select it use VLC or dvd player home
not use wmp

Brivido - Maximum Overdrive (1986)







Titolo originale Maximum Overdrive
Lingua originale Inglese
Paese di produzione USA
Anno 1986
Durata 97 min
Rapporto 2.35 : 1
Genere commedia, orrore, azione, avventura
Regia Stephen King
Soggetto Stephen King (racconto)
Sceneggiatura Stephen King
Produttore Martha De Laurentiis
Produttore esecutivo Dino De Laurentiis, Don Levin, Mel Pearl
Fotografia Armando Nannuzzi
Montaggio Evan Lottman
Effetti speciali Industrial Light & Magic
Musiche AC/DC
Scenografia Giorgio Postiglione
Costumi Clifford Capone




   Emilio Estevez: Bill Robinson
   Pat Hingle: Bubba Hendershot
   Laura Harrington: Brett
   Yeardley Smith: Connie
   John Short: Curtis
   Ellen McElduff: Wanda June
   J.C. Quinn: Duncan
   Holter Graham: Deke
   Stephen King: Uomo insultato al bancomat
   Frankie Faison: Handy
   Leon Rippy: Brad
   J. Don Ferguson: Andy
   Paul A. Partain: Joy




È il 19 giugno 1987, la congiunzione della terra con la coda di una cometa crea scompiglio sulla terra e.........................



When Earth passes through the tail of Rea-M rogue comet, the machines come to life and threaten and kill the mankind. A group of survivors is under siege of fierce trucks in the Dixie Boy truck stop in a gas station and they have to fight to survive.











[spoiler]
General
Unique ID                                : 294497521341489121502857080553261640866 (0xDD8E28D455294FDF29D13C9929C62CA2)
Complete name                            : Brivido (1986).H264.ita.eng.sub.ita.eng.iCV-MIRCrew.mkv
Format                                   : Matroska
Format version                           : Version 2
File size                                : 1.12 GiB
Duration                                 : 1h 38mn
Overall bit rate                         : 1 641 Kbps
Movie name                               : Visitate www.icv-crew.org
Encoded date                             : UTC 2016-08-13 14:41:35
Writing application                      : Lavf54.63.100
Writing library                          : Lavf54.63.100

Video
ID                                       : 1
Format                                   : AVC
Format/Info                              : Advanced Video Codec
Format profile                           : [email protected]
Format settings, CABAC                   : Yes
Format settings, ReFrames                : 2 frames
Codec ID                                 : V_MPEG4/ISO/AVC
Duration                                 : 1h 38mn
Bit rate                                 : 1 250 Kbps
Width                                    : 720 pixels
Height                                   : 304 pixels
Display aspect ratio                     : 2.35:1
Original display aspect ratio            : 2.35:1
Frame rate mode                          : Variable
Frame rate                               : 23.976 fps
Color space                              : YUV
Chroma subsampling                       : 4:2:0
Bit depth                                : 8 bits
Scan type                                : Progressive
Bits/(Pixel*Frame)                       : 0.238
Stream size                              : 859 MiB (75%)
Title                                    : BDRip 1080p
Writing library                          : x264 core 130 r2273
Encoding settings                        : cabac=1 / ref=2 / deblock=1:0:0 / analyse=0x1:0x131 / me=hex / subme=7 / psy=1 / psy_rd=1.00:0.00 / mixed_ref=0 / me_range=16 / chroma_me=1 / trellis=1 / 8x8dct=0 / cqm=0 / deadzone=21,11 / fast_pskip=1 / chroma_qp_offset=-2 / threads=12 / lookahead_threads=2 / sliced_threads=0 / nr=0 / decimate=1 / interlaced=0 / bluray_compat=0 / constrained_intra=0 / bframes=3 / b_pyramid=0 / b_adapt=1 / b_bias=0 / direct=3 / weightb=1 / open_gop=0 / weightp=2 / keyint=230 / keyint_min=23 / scenecut=40 / intra_refresh=0 / rc_lookahead=40 / rc=abr / mbtree=1 / bitrate=1250 / ratetol=1.0 / qcomp=0.60 / qpmin=10 / qpmax=69 / qpstep=4 / vbv_maxrate=24000 / vbv_bufsize=24000 / nal_hrd=none / ip_ratio=1.40 / aq=1:1.00
Language                                 : Italian
Default                                  : Yes
Forced                                   : No
DURATION                                 : 01:38:06.548000000
NUMBER_OF_FRAMES                         : 141136
NUMBER_OF_BYTES                          : 6898658802
_STATISTICS_WRITING_APP                  : mkvmerge v9.3.1 ('Mask Machine') 32bit
_STATISTICS_WRITING_DATE_UTC             : 2016-08-13 14:41:35
_STATISTICS_TAGS                         : BPS DURATION NUMBER_OF_FRAMES NUMBER_OF_BYTES

Audio #1
ID                                       : 2
Format                                   : AC-3
Format/Info                              : Audio Coding 3
Mode extension                           : CM (complete main)
Codec ID                                 : A_AC3
Duration                                 : 1h 38mn
Bit rate mode                            : Constant
Bit rate                                 : 192 Kbps
Channel(s)                               : 2 channels
Channel positions                        : Front: L R
Sampling rate                            : 48.0 KHz
Bit depth                                : 16 bits
Compression mode                         : Lossy
Stream size                              : 135 MiB (12%)
Title                                    : Ita Ac3 2.0 BY Morty Swim
Language                                 : Italian
Default                                  : Yes
Forced                                   : No
DURATION                                 : 01:38:06.880000000
NUMBER_OF_FRAMES                         : 183965
NUMBER_OF_BYTES                          : 141285120
_STATISTICS_WRITING_APP                  : mkvmerge v9.3.1 ('Mask Machine') 32bit
_STATISTICS_WRITING_DATE_UTC             : 2016-08-13 14:41:35
_STATISTICS_TAGS                         : BPS DURATION NUMBER_OF_FRAMES NUMBER_OF_BYTES

Audio #2
ID                                       : 3
Format                                   : AC-3
Format/Info                              : Audio Coding 3
Mode extension                           : CM (complete main)
Codec ID                                 : A_AC3
Duration                                 : 1h 38mn
Bit rate mode                            : Constant
Bit rate                                 : 192 Kbps
Channel(s)                               : 2 channels
Channel positions                        : Front: L R
Sampling rate                            : 48.0 KHz
Bit depth                                : 16 bits
Compression mode                         : Lossy
Stream size                              : 135 MiB (12%)
Title                                    : Eng Ac3 2.0
Language                                 : English
Default                                  : No
Forced                                   : No
DURATION                                 : 01:38:06.720000000
NUMBER_OF_FRAMES                         : 183960
NUMBER_OF_BYTES                          : 141281280
_STATISTICS_WRITING_APP                  : mkvmerge v9.3.1 ('Mask Machine') 32bit
_STATISTICS_WRITING_DATE_UTC             : 2016-08-13 14:41:35
_STATISTICS_TAGS                         : BPS DURATION NUMBER_OF_FRAMES NUMBER_OF_BYTES

Text #1
ID                                       : 4
Format                                   : ASS
Codec ID                                 : S_TEXT/ASS
Codec ID/Info                            : Advanced Sub Station Alpha
Compression mode                         : Lossless
Title                                    : Sub Forced
Language                                 : Italian
Default                                  : Yes
Forced                                   : Yes
DURATION                                 : 00:00:34.831000000
NUMBER_OF_FRAMES                         : 6
NUMBER_OF_BYTES                          : 327
_STATISTICS_WRITING_APP                  : mkvmerge v9.3.1 ('Mask Machine') 32bit
_STATISTICS_WRITING_DATE_UTC             : 2016-08-13 14:41:35
_STATISTICS_TAGS                         : BPS DURATION NUMBER_OF_FRAMES NUMBER_OF_BYTES

Text #2
ID                                       : 5
Format                                   : ASS
Codec ID                                 : S_TEXT/ASS
Codec ID/Info                            : Advanced Sub Station Alpha
Compression mode                         : Lossless
Title                                    : Sub Regular
Language                                 : English
Default                                  : No
Forced                                   : No
DURATION                                 : 01:34:19.587000000
NUMBER_OF_FRAMES                         : 713
NUMBER_OF_BYTES                          : 25850
_STATISTICS_WRITING_APP                  : mkvmerge v9.3.1 ('Mask Machine') 32bit
_STATISTICS_WRITING_DATE_UTC             : 2016-08-13 14:41:35
_STATISTICS_TAGS                         : BPS DURATION NUMBER_OF_FRAMES NUMBER_OF_BYTES

Text #3
ID                                       : 6
Format                                   : ASS
Codec ID                                 : S_TEXT/ASS
Codec ID/Info                            : Advanced Sub Station Alpha
Compression mode                         : Lossless
Title                                    : Sub Regular
Language                                 : English
Default                                  : No
Forced                                   : No
DURATION                                 : 01:33:25.085000000
NUMBER_OF_FRAMES                         : 673
NUMBER_OF_BYTES                          : 22468
_STATISTICS_WRITING_APP                  : mkvmerge v9.3.1 ('Mask Machine') 32bit
_STATISTICS_WRITING_DATE_UTC             : 2016-08-13 14:41:35
_STATISTICS_TAGS                         : BPS DURATION NUMBER_OF_FRAMES NUMBER_OF_BYTES

Menu
00:00:00.000                             : :00:00:00.000
00:00:00.375                             : :00:00:00.375
00:12:49.769                             : :00:12:49.769
00:23:15.978                             : :00:23:15.978
00:36:55.714                             : :00:36:55.714
00:47:30.348                             : :00:47:30.348
00:58:51.028                             : :00:58:51.028
01:10:47.743                             : :01:10:47.743
01:22:35.284                             : :01:22:35.284


[/spoiler]

[/center]

Info: Per scaricare devi usare un client come uTorrent o Transmission
AnnounceURL
udp://tracker.leechers-paradise.org:6969/announce
Hash ccb66af2c050619fa792c709a725a371c284909b
Peers seeds: 18 , leech: 3
Size 1.12 GB
Completato 28x
Aggiunto 19.08.16 - 08:08:06
Uploader   robbyrs
Votazione (Voti: 0)


Condividi questo bittorrent:


html/blog:


bbcode/forum:




Aggiungi Commento


counter