Loading...
 * Dettagli Torrent   globale  | Commenti (0) 


- Dobbiamo parlare (2015).H264.Italian.Ac3.5.1.sub.eng.iCV-MIRCrew -


Download via torrent:
Categoria bittorrent BDRip
Descrizione
Dobbiamo parlare (2015).H264.Italian.Ac3.5.1.sub.eng.iCV-MIRCrew


by http://www.icv-crew.org

[center]


NO FOUND ONLY ORIGINAL RELEASE

My release is always in double track audio italian and Original audio
for select it use VLC or dvd player home
not use wmp

Dobbiamo parlare (2015)

ENGLISH SUBTITLE INSIDE








Paese di produzione Italia
Anno 2015
Durata 101 min
Rapporto 2,35:1
Genere commedia
Regia Sergio Rubini
Soggetto Carla Cavalluzzi, Diego De Silva, Sergio Rubini
Produttore Carlo Degli Esposti, Marco Balsamo, Marco Camilli
Produttore esecutivo Guido Simonetti
Casa di produzione Palomar, Nuovo Teatro, Rai Cinema
Distribuzione (Italia) Cinema
Fotografia Vincenzo Carpineta
Montaggio Giogiò Franchini
Effetti speciali Corrado Rizzo
Musiche Michele Fazio
Scenografia Luca Gobbi
Costumi Patrizia Chericoni




   Fabrizio Bentivoglio: Alfredo
   Isabella Ragonese: Linda
   Maria Pia Calzone: Costanza
   Sergio Rubini: Vanni




Vanni e Linda sono fidanzati da dieci anni, convivono in un attico a Roma centro. Lui fa lo scrittore, lei è la sua ghostwriter. I loro migliori amici sono Costanza e Alfredo, detto il Prof. Due medici, lei una dermatologa e lui un cardiochirurgo innamorato del suo lavoro. Sono sposati, non hanno figli e gestiscono il loro matrimonio come una Spa.......................



Vanni and Linda are engaged for ten years , living in a penthouse in Rome center. He is a writer , she is his ghostwriter . Their best friends are Constance and Alfredo , said Prof. Two doctors , a dermatologist and she him a heart surgeon in love with his work. They are married, have no children and manage their marriage as a Spa .......................










[spoiler]
General
Unique ID                                : 211831546657198992855474569328532781365 (0x9F5D459A67E51FF4BE033C696179F935)
Complete name                            : Dobbiamo parlare (2015).ita.sub.eng.iCV-MIRCrew.mkv
Format                                   : Matroska
Format version                           : Version 2
File size                                : 1.19 GiB
Duration                                 : 1h 36mn
Overall bit rate                         : 1 756 Kbps
Movie name                               : DOBBIAMOPARLARE.Title1
Encoded date                             : UTC 2016-08-11 06:22:47
Writing application                      : DVDFab 9.1.5.7
Writing library                          : libebml v0.7.8 + libmatroska v0.8.1

Video
ID                                       : 1
Format                                   : AVC
Format/Info                              : Advanced Video Codec
Format profile                           : [email protected]
Format settings, CABAC                   : Yes
Format settings, ReFrames                : 2 frames
Codec ID                                 : V_MPEG4/ISO/AVC
Duration                                 : 1h 36mn
Bit rate                                 : 1 273 Kbps
Width                                    : 720 pixels
Height                                   : 304 pixels
Display aspect ratio                     : 2.35:1
Frame rate                               : 25.000 fps
Color space                              : YUV
Chroma subsampling                       : 4:2:0
Bit depth                                : 8 bits
Scan type                                : Progressive
Bits/(Pixel*Frame)                       : 0.233
Stream size                              : 883 MiB (73%)
Writing library                          : x264 core
Default                                  : Yes
Forced                                   : No
Color primaries                          : BT.601-6 525, BT.1358 525, BT.1700 NTSC, SMPTE 170M
Transfer characteristics                 : BT.709-5, BT.1361
Matrix coefficients                      : BT.601-6 525, BT.1358 525, BT.1700 NTSC, SMPTE 170M

Audio
ID                                       : 2
Format                                   : AC-3
Format/Info                              : Audio Coding 3
Mode extension                           : CM (complete main)
Codec ID                                 : A_AC3
Duration                                 : 1h 36mn
Bit rate mode                            : Constant
Bit rate                                 : 448 Kbps
Channel(s)                               : 6 channels
Channel positions                        : Front: L C R, Side: L R, LFE
Sampling rate                            : 48.0 KHz
Bit depth                                : 16 bits
Compression mode                         : Lossy
Stream size                              : 311 MiB (26%)
Language                                 : Italian
Default                                  : Yes
Forced                                   : No

Text
ID                                       : 3
Format                                   : VobSub
Codec ID                                 : S_VOBSUB
Codec ID/Info                            : The same subtitle format used on DVDs
Language                                 : English
Default                                  : Yes
Forced                                   : No

Menu
00:00:00.000                             : en01)00:00:00:000
00:09:57.400                             : en02)00:09:57:400
00:20:00.280                             : en03)00:20:00:280
00:27:56.560                             : en04)00:27:56:560
00:39:47.480                             : en05)00:39:47:480
00:50:06.200                             : en06)00:50:06:200
00:56:26.640                             : en07)00:56:26:640
01:03:57.920                             : en001:03:57:920
01:10:42.160                             : en09)01:10:42:160
01:20:18.600                             : en10)01:20:18:600
01:24:38.840                             : en11)01:24:38:840
01:31:54.720                             : en12)01:31:54:720
01:36:52.040                             : en13)01:36:52:040


[/spoiler]

[/center]

Info: Per scaricare devi usare un client come uTorrent o Transmission
AnnounceURL
udp://tracker.leechers-paradise.org:6969/announce
Hash 387977847cdb60ec931b1704058e274296bcab39
Peers seeds: 123 , leech: 15
Size 1.19 GB
Completato 45x
Aggiunto 12.08.16 - 14:08:45
Uploader   robbyrs
Votazione (Voti: 0)


Condividi questo bittorrent:


html/blog:


bbcode/forum:




Aggiungi Commento


counter