Loading...
 * Dettagli Torrent   globale  | Commenti (0) 


- Bagi - Daishizen no Maju Bagi (1984) Osamu Tezuka DVDrip.XviD.Ita.Jap.Ac3.iCV-MIRCrew -


Download via torrent:
Categoria bittorrent Anime
Descrizione
Bagi - Daishizen no Maju Bagi (1984) Osamu Tezuka DVDrip.XviD.Ita.Jap.Ac3.iCV-MIRCrew

[center]

[b][color=green]

[size=24pt]Bagi - Daishizen no Maju Bagi

?????? ??

(1984) Osamu Tezuka[/size]

Rip Da DVD Originale



Bagi, the Monster of Mighty Nature
(Daishizen no Maju Bagi)
Genre Drama
TV film anime
Director Osamu Tezuka
Studio Tezuka Productions
Network Nippon Television
Released August 19, 1984

Bagi (?????? ?? Daishizen no Maj? Bagi?, Bagi, the Monster of Mighty Nature - Bagi, il mostro della possente natura) è un film anime giapponese creato direttamente per la televisione da

Tezuka Productions e trasmesso per la prima volta su Nippon Television il 19 agosto 1984. È stato scritto da Osamu Tezuka come critica all’approvazione del governo giapponese agli

esperimenti di ricombinazione del DNA dato proprio quello stesso anno.



Trama:

Ryosuke è un ragazzo di quindici anni, crescito da solo perchè i suoi genitori (un giornalista e una ricercatrice scientifica) sono sempre stati troppo presi dal lavoro. Dopo essere entrato in una banda di motociclisti quel gruppo di centauri incontrerà di notte una donna in impermeabile, ma nel tentativo di infastidirla saranno loro a vedersela brutta. Quella donna non è un comune essere umano ed è una vecchia amica del ragazzo, scomparsa nove anni addietro quando lui era bambino. Dopo un pò di sconcertamento ora che si sono ritrovati vogliono scoprire insieme perchè lei sia un'essere così fuori dalla norma.  







Dati File:

[spoiler]General
Complete name                            : Bagi - Daishizen no Maju Bagi (1984) Osamu Tezuka\Bagi.avi
Format                                   : AVI
Format/Info                              : Audio Video Interleave
File size                                : 1.36 GiB
Duration                                 : 1h 24mn
Overall bit rate                         : 2 289 Kbps
Writing application                      : FairUse Wizard
Writing library                          : The best and REALLY easy backup tool

Video
ID                                       : 0
Format                                   : MPEG-4 Visual
Format profile                           : Advanced [email protected]
Format settings, BVOP                    : 2
Format settings, QPel                    : No
Format settings, GMC                     : No warppoints
Format settings, Matrix                  : Default (H.263)
Muxing mode                              : Packed bitstream
Codec ID                                 : XVID
Codec ID/Hint                            : XviD
Duration                                 : 1h 24mn
Bit rate                                 : 1 891 Kbps
Width                                    : 688 pixels
Height                                   : 512 pixels
Display aspect ratio                     : 4:3
Frame rate                               : 25.000 fps
Color space                              : YUV
Chroma subsampling                       : 4:2:0
Bit depth                                : 8 bits
Scan type                                : Progressive
Compression mode                         : Lossy
Bits/(Pixel*Frame)                       : 0.215
Stream size                              : 1.12 GiB (83%)
Writing library                          : XviD 1.2.0.dev47 (UTC 2006-11-01)

Audio #1
ID                                       : 1
Format                                   : AC-3
Format/Info                              : Audio Coding 3
Mode extension                           : CM (complete main)
Codec ID                                 : 2000
Duration                                 : 1h 24mn
Bit rate mode                            : Constant
Bit rate                                 : 192 Kbps
Channel(s)                               : 2 channels
Channel positions                        : Front: L R
Sampling rate                            : 48.0 KHz
Bit depth                                : 16 bits
Compression mode                         : Lossy
Stream size                              : 116 MiB (8%)
Alignment                                : Split accross interleaves
Interleave, duration                     : 40 ms (1.00 video frame)
Interleave, preload duration             : 500 ms

Audio #2
ID                                       : 2
Format                                   : AC-3
Format/Info                              : Audio Coding 3
Mode extension                           : CM (complete main)
Codec ID                                 : 2000
Duration                                 : 1h 24mn
Bit rate mode                            : Constant
Bit rate                                 : 192 Kbps
Channel(s)                               : 2 channels
Channel positions                        : Front: L R
Sampling rate                            : 48.0 KHz
Bit depth                                : 16 bits
Compression mode                         : Lossy
Stream size                              : 116 MiB (8%)
Alignment                                : Split accross interleaves
Interleave, duration                     : 40 ms (1.00 video frame)
Interleave, preload duration             : 500 ms


[/spoiler]




[/center]

Info: Per scaricare devi usare un client come uTorrent o Transmission
AnnounceURL
udp://tracker.leechers-paradise.org:6969/announce
Hash f6759d02d55901f6783ff1db44d68e01ffbc11f8
Peers seeds: 4 , leech: 1
Size 1.36 GB
Completato 18x
Aggiunto 31.07.16 - 15:07:14
Uploader   robbyrs
Votazione (Voti: 0)


Condividi questo bittorrent:


html/blog:


bbcode/forum:




Aggiungi Commento


counter