Loading...
 * Dettagli Torrent   globale  | Commenti (1) 


- Death Games (2011).BRrip.XviD - Italian.English.Ac3.5.1.multisub.iCV-MIRCrew -


Download via torrent:
Categoria bittorrent BDRip
Descrizione
Arena - Death Games (2011).BRrip.XviD - Italian.English.Ac3.5.1.multisub.iCV-MIRCrew

by http://www.icv-crew.org

[center]


NO FOUND ONLY ORIGINAL RELEASE

My release is always in double track audio italian and Original audio
for select it use VLC or dvd player home
not use wmp

Death Games - Arena (2011)







Titolo originale Arena
Lingua originale inglese
Paese di produzione USA
Anno 2011
Durata 94 min
Rapporto 2,35:1
Genere azione, thriller
Regia Jonah Loop
Soggetto Tony Giglio
Sceneggiatura Michael Hultquist, Robert Martinez
Produttore Mike Callaghan
Produttore esecutivo Rui Costa Reis, Eliad Josephson
Casa di produzione Motion Picture Corporation of America
Fotografia Nelson Cragg
Montaggio Robert Berman, Harvey Rosenstock
Musiche Jeff Danna
Scenografia Tom Lisowski
Costumi Shawn Holly Cookson





   Samuel L. Jackson: Logan
   Kellan Lutz: David Lord
   Johnny Messner: Kaden
   Katia Winter: Milla
   Daniel Dae Kim: Taiga
   James Remar: Agent McCarty
   Nina Dobrev: Lori
   Lauren Shiohama: Kawaii
   Irene Choi: Kaneko
   Kofi Yiadom: Ripper
   Derek Mears: Brutus Jackson
   Dean J. West: Rick




David Lord, vigile del fuoco e paramedico, viene coinvolto in un grave incidente stradale assieme alla moglie incinta Lori che non sopravvive allo schianto. Dopo aver tentato di suicidarsi, David va in Messico dove non fa altro che ubriacarsi. Proprio in un bar conosce l'affascinante Milla, che prima lo seduce e poi lo rapisce. Milla infatti è una reclutatrice per the Death Games, un gioco illegale trasmesso in Internet



David Lord finds himself forced into the savage world of a modern gladiatorial arena, where men fight to the death for the entertainment of the online masses.








[spoiler]
General
Complete name                            : Death Games (2011).ita.eng.multisub.iCV-MIRCrew\Death Games (2011).ita.eng.multisub.iCV-MIRCrew.avi
Format                                   : AVI
Format/Info                              : Audio Video Interleave
File size                                : 1.66 GiB
Duration                                 : 1h 30mn
Overall bit rate                         : 2 625 Kbps
Writing application                      : VirtualDubMod 1.5.4.1 (build 2178/release)
Writing library                          : VirtualDubMod build 2178/release

Video
ID                                       : 0
Format                                   : MPEG-4 Visual
Format profile                           : Advanced [email protected]
Format settings, BVOP                    : No
Format settings, QPel                    : No
Format settings, GMC                     : No warppoints
Format settings, Matrix                  : Custom
Codec ID                                 : XVID
Codec ID/Hint                            : XviD
Duration                                 : 1h 30mn
Bit rate                                 : 1 784 Kbps
Width                                    : 720 pixels
Height                                   : 304 pixels
Display aspect ratio                     : 2.35:1
Frame rate                               : 25.000 fps
Color space                              : YUV
Chroma subsampling                       : 4:2:0
Bit depth                                : 8 bits
Scan type                                : Progressive
Compression mode                         : Lossy
Bits/(Pixel*Frame)                       : 0.326
Stream size                              : 1.13 GiB (68%)
Writing library                          : XviD 64

Audio #1
ID                                       : 1
Format                                   : AC-3
Format/Info                              : Audio Coding 3
Mode extension                           : CM (complete main)
Codec ID                                 : 2000
Duration                                 : 1h 30mn
Bit rate mode                            : Constant
Bit rate                                 : 384 Kbps
Channel(s)                               : 6 channels
Channel positions                        : Front: L C R, Side: L R, LFE
Sampling rate                            : 48.0 KHz
Bit depth                                : 16 bits
Compression mode                         : Lossy
Stream size                              : 248 MiB (15%)
Alignment                                : Split accross interleaves
Interleave, duration                     : 96 ms (2.40 video frames)
Interleave, preload duration             : 96 ms
Language                                 : Italian

Audio #2
ID                                       : 2
Format                                   : AC-3
Format/Info                              : Audio Coding 3
Mode extension                           : CM (complete main)
Codec ID                                 : 2000
Duration                                 : 1h 30mn
Bit rate mode                            : Constant
Bit rate                                 : 448 Kbps
Channel(s)                               : 6 channels
Channel positions                        : Front: L C R, Side: L R, LFE
Sampling rate                            : 48.0 KHz
Bit depth                                : 16 bits
Compression mode                         : Lossy
Stream size                              : 290 MiB (17%)
Alignment                                : Split accross interleaves
Interleave, duration                     : 96 ms (2.40 video frames)
Interleave, preload duration             : 96 ms
Language                                 : English



[/spoiler]

[/center]

Info: Per scaricare devi usare un client come uTorrent o Transmission
AnnounceURL
udp://tracker.leechers-paradise.org:6969/announce
Hash 271023f69f5e6d96104356340fccf8fd4b998f5c
Peers seeds: 78 , leech: 21
Size 1.68 GB
Completato 44x
Aggiunto 20.07.16 - 15:07:28
Uploader   robbyrs
Votazione (Voti: 0)


Condividi questo bittorrent:


html/blog:


bbcode/forum:




Aggiungi Commento
Ultimi commenti
 sica75sica75   
Impossibile risolvere l'indirizzo DNS del server.
22/07 15.47
Tutti commenti (1)


counter