Loading...
 * Dettagli Torrent   globale  | Commenti (1) 


- 10 Cloverfield Lane (2016).BRrip.XviD - Italian.English.Ac3.5.1.Sub.Ita.Eng.iCV-MIRCrew -


Download via torrent:
Categoria bittorrent BDRip
Descrizione
10 Cloverfield Lane (2016).BRrip.XviD - Italian.English.Ac3.5.1.Sub.Ita.Eng.iCV-MIRCrew

[center]


NO FOUND ONLY ORIGINAL RELEASE

My release is always in double track audio italian and Original audio
for select it use VLC or dvd player home
not use wmp

10 Cloverfield Lane (2016)









   DATA USCITA: 28 aprile 2016
   GENERE: Thriller
   ANNO: 2016
   REGIA: Dan Trachtenberg
   SCENEGGIATURA: Josh Campbell, Matthew Stuecken, Damien Chazelle
   FOTOGRAFIA: Jeff Cutter
   MONTAGGIO: Stefan Grube
   MUSICHE: Bear McCreary
   PRODUZIONE: Bad Robot
   DISTRIBUZIONE: Universal Pictures International Italy
   PAESE: USA
   DURATA: 103 Min



Mary Elizabeth Winstead, John Goodman, John Gallagher Jr., Maya Erskine, Mat Vairo



Dopo essere stata coinvolta in un incidente stradale, una giovane donna si ritrova in un misterioso rifugio insieme a due uomini, uno dei quali sostiene di averle salvato la vita. Alla ragazza viene anche detto che il mondo esterno è ormai invivibile a causa di un attacco chimico-batteriologico. Lei è comunque decisa a tentare la fuga.



After getting in a car accident, a woman is held in a shelter with two men, who claim the outside world is affected by a widespread chemical attack.








[spoiler]
General
Complete name                            : 10 Cloverfield Lane (2016).ita.eng.sub.ita.eng.iCV-MIRCrew.avi
Format                                   : AVI
Format/Info                              : Audio Video Interleave
File size                                : 1.41 GiB
Duration                                 : 1h 43mn
Overall bit rate                         : 1 947 Kbps
Movie name                               : www.icv-crew.org
Writing application                      : VirtualDubMod 1.5.10.2 (build 2540/release)
Writing library                          : VirtualDubMod build 2540/release

Video
ID                                       : 0
Format                                   : MPEG-4 Visual
Format profile                           : [email protected]
Format settings, BVOP                    : No
Format settings, QPel                    : No
Format settings, GMC                     : No warppoints
Format settings, Matrix                  : Default (H.263)
Codec ID                                 : XVID
Codec ID/Hint                            : XviD
Duration                                 : 1h 43mn
Bit rate                                 : 1 037 Kbps
Width                                    : 720 pixels
Height                                   : 300 pixels
Display aspect ratio                     : 2.40:1
Frame rate                               : 23.976 fps
Color space                              : YUV
Chroma subsampling                       : 4:2:0
Bit depth                                : 8 bits
Scan type                                : Progressive
Compression mode                         : Lossy
Bits/(Pixel*Frame)                       : 0.200
Stream size                              : 768 MiB (53%)
Writing library                          : XviD 64

Audio #1
ID                                       : 1
Format                                   : AC-3
Format/Info                              : Audio Coding 3
Mode extension                           : CM (complete main)
Codec ID                                 : 2000
Duration                                 : 1h 43mn
Bit rate mode                            : Constant
Bit rate                                 : 448 Kbps
Channel(s)                               : 6 channels
Channel positions                        : Front: L C R, Side: L R, LFE
Sampling rate                            : 48.0 KHz
Bit depth                                : 16 bits
Compression mode                         : Lossy
Stream size                              : 332 MiB (23%)
Alignment                                : Split accross interleaves
Interleave, duration                     : 42 ms (1.00 video frame)
Interleave, preload duration             : 500 ms

Audio #2
ID                                       : 2
Format                                   : AC-3
Format/Info                              : Audio Coding 3
Mode extension                           : CM (complete main)
Codec ID                                 : 2000
Duration                                 : 1h 43mn
Bit rate mode                            : Constant
Bit rate                                 : 448 Kbps
Channel(s)                               : 6 channels
Channel positions                        : Front: L C R, Side: L R, LFE
Sampling rate                            : 48.0 KHz
Bit depth                                : 16 bits
Compression mode                         : Lossy
Stream size                              : 332 MiB (23%)
Alignment                                : Split accross interleaves
Interleave, duration                     : 42 ms (1.00 video frame)
Interleave, preload duration             : 500 ms


[/spoiler]

[/center]

Info: Per scaricare devi usare un client come uTorrent o Transmission
AnnounceURL
udp://tracker.leechers-paradise.org:6969/announce
Hash 4462fc570485a9a10efafcaa1025b4dd74a80d5a
Peers seeds: 295 , leech: 103
Size 1.41 GB
Completato 3803x
Aggiunto 14.07.16 - 15:07:35
Uploader   robbyrs
Votazione (Voti: 2)


Condividi questo bittorrent:


html/blog:


bbcode/forum:




Aggiungi Commento
Ultimi commenti
  
audio e video ottimi
24/07 18.34
Tutti commenti (1)


counter