Loading...
 * Dettagli Torrent   globale  | Commenti (0) 


- Police Story - Lockdown (2013).BRrip.XviD - Italian.Chn.Ac3.5.1.sub.ita.eng.iCV-MIRCrew -


Download via torrent:
Categoria bittorrent BDRip
Descrizione
Police Story - Lockdown (2013).BRrip.XviD - Italian.Chn.Ac3.5.1.sub.ita.eng.iCV-MIRCrew

[center]


NO FOUND ONLY ORIGINAL RELEASE

My release is always in double track audio italian and Original audio
for select it use VLC or dvd player home
not use wmp

ENGLISH SUBTITLE INSIDE

Police Story - Lockdown (2013)







Film poster
Traditional ????2013
Simplified ????2013
Mandarin J?ng Chá Gù Shì Èr Líng Y? S?n
Cantonese Ging2 Caat3 Gu3 Si6 Ji6 Ling4 Jat1 Saam1
Directed by Ding Sheng
Produced by Yang Du
Yong Er
Zhang Wang
Written by Ding Sheng
Starring Jackie Chan
Liu Ye
Jing Tian
Music by Zai Lao
Cinematography Yu Ding
Edited by Ismael Gomez III
Production
company

Jackie & JJ Productions
China Vision Media Group
Wanda Film and Television Media
Starlet HK International Media
Distributed by Jackie & JJ International (Worldwide)
Emperor Motion Pictures (Hong Kong)
Release dates


   24 December 2013 (China)
   16 January 2014 (Hong Kong[1])

Running time
108 minutes
Country China
Hong Kong
Language Mandarin
Box office US$94,249,025[2]



   Jackie Chan as Detective Zhong Wen
   Liu Ye as Wu Jiang
   Jing Tian as Miao Miao
   Yin Tao as Lan Lan
   Liu Yiwei as Chief Niu
   Zhou Xiaoou as Wei Xiaofu
   Yu Rongguang as Captain Wu
   Zhang Lei as Quanzi
   Liu Peiqi as Chief Zhang
   Wang Zhifei as Officer Fang
   Zhang Xiaoning as Wu's father
   Guli Nazha as Xiao Wei
   Wu Yue as Yue
   Liu Hailong as Pizhong
   Na Wei as Na Na
   Cai An as Kun
   Ding Sheng as truck driver



Zhong Wen, capitano di polizia, sa cosa siano i sacrifici ed è sempre stato troppo occupato a dare la caccia ai criminali per essere un buon padre con la figlia Miao, che ormai non vede da parecchi anni. Per rimediare decide finalmente di incontrarla, insieme al fidanzato della ragazza



A man looking for the release of a long-time prisoner takes a police officer, his daughter, and a group of strangers hostage.









[spoiler]
General
Complete name                            : Police Story - Lockdown (2013).ita.chn.sub.ita.eng.iCV-MIRCrew.avi
Format                                   : AVI
Format/Info                              : Audio Video Interleave
File size                                : 1.85 GiB
Duration                                 : 1h 50mn
Overall bit rate                         : 2 411 Kbps
Movie name                               : www.icv-crew.org
Writing application                      : VirtualDubMod 1.5.10.2 (build 2540/release)
Writing library                          : VirtualDubMod build 2540/release

Video
ID                                       : 0
Format                                   : MPEG-4 Visual
Format profile                           : [email protected]
Format settings, BVOP                    : No
Format settings, QPel                    : No
Format settings, GMC                     : No warppoints
Format settings, Matrix                  : Default (H.263)
Codec ID                                 : XVID
Codec ID/Hint                            : XviD
Duration                                 : 1h 50mn
Bit rate                                 : 1 501 Kbps
Width                                    : 720 pixels
Height                                   : 304 pixels
Display aspect ratio                     : 2.35:1
Frame rate                               : 24.000 fps
Color space                              : YUV
Chroma subsampling                       : 4:2:0
Bit depth                                : 8 bits
Scan type                                : Progressive
Compression mode                         : Lossy
Bits/(Pixel*Frame)                       : 0.286
Stream size                              : 1.15 GiB (62%)
Writing library                          : XviD 64

Audio #1
ID                                       : 1
Format                                   : AC-3
Format/Info                              : Audio Coding 3
Mode extension                           : CM (complete main)
Codec ID                                 : 2000
Duration                                 : 1h 50mn
Bit rate mode                            : Constant
Bit rate                                 : 448 Kbps
Channel(s)                               : 6 channels
Channel positions                        : Front: L C R, Side: L R, LFE
Sampling rate                            : 48.0 KHz
Bit depth                                : 16 bits
Compression mode                         : Lossy
Stream size                              : 353 MiB (19%)
Alignment                                : Split accross interleaves
Interleave, duration                     : 42 ms (1.00 video frame)
Interleave, preload duration             : 500 ms

Audio #2
ID                                       : 2
Format                                   : AC-3
Format/Info                              : Audio Coding 3
Mode extension                           : CM (complete main)
Codec ID                                 : 2000
Duration                                 : 1h 50mn
Bit rate mode                            : Constant
Bit rate                                 : 448 Kbps
Channel(s)                               : 6 channels
Channel positions                        : Front: L C R, Side: L R, LFE
Sampling rate                            : 48.0 KHz
Bit depth                                : 16 bits
Compression mode                         : Lossy
Stream size                              : 353 MiB (19%)
Alignment                                : Split accross interleaves
Interleave, duration                     : 42 ms (1.00 video frame)
Interleave, preload duration             : 500 ms



[/spoiler]

[/center]

Info: Per scaricare devi usare un client come uTorrent o Transmission
AnnounceURL
udp://tracker.leechers-paradise.org:6969/announce
Hash 5fb53a6c0301c8315614c4e298ee3e34c58e8e6d
Peers seeds: 33 , leech: 3
Size 1.85 GB
Completato 482x
Aggiunto 08.07.16 - 14:07:38
Uploader   robbyrs
Votazione (Voti: 0)


Condividi questo bittorrent:


html/blog:


bbcode/forum:




Aggiungi Commento


counter